Super HD-Vinyls 96/24 (Audite) G. Mahler – Symphony No. 6 (Kubelik)

Brand new, unopened and mint – played for the 1st time – audiophile 180g Pressing – Reup, now with FF-links

# Composer: Gustav Mahler
# Orchestra: Symphony Orchestra of the Bavarian Radio
# Conductor: Rafael Kubelik
# Vinyl (1968/2004)
# Number of Discs: 2
# Format: Flac
# Label: Audite
# DR-Analysis: DR 14
# ASIN: B00005NQKY
# Size: 1.48 GB
# Scan: yes
# Server: FF

Analyzed folder: /Users/alfredo/Desktop/ HiResMusic/ FERTIG STELLEN/96k Mahler S6 Audite
DR        Peak        RMS        Filename
DR14        -1.20 dB     -19.44 dB     A Symphony No. 6 in A minor – 1 Allegro energico ma non troppo-Heftig aber markig.wav
DR14        -1.78 dB     -19.85 dB     B Symphony No. 6 in A minor – 2 Scherzo-Wuchtig.wav
DR13        -1.69 dB     -20.73 dB     C Symphony No. 6 in A minor – 3 Andante moderato.wav
DR14        -0.95 dB     -19.14 dB     D Symphony No. 6 in A minor – 4 Finale-Allegro moderato.wav
Number of files:    4
Official DR value:    DR14

Ripping Infos

  • RCM: Okki Nokki
  • TT: Clearaudio Champion Level II
  • System: Special Edition Denon DL 103
  • Phono stage: Pro-Ject Phono Box II
  • Pre Amp: Unison Research Unico Pre (Tube)
  • Finals: Opera Consonance 9.9 Mono (Tube)
  • Speakers: Dali Helikon 400
  • Software: iZotope RX Advanced v2.02, Adobe Audition CS 5.5 -> Wave 32 bit/96 kHz
  • Light de-Clicking with ClickRepair, significant clicks manually removing, no De-Noising

You hear some clicks and pops here and there? Who cares?
I better let some light anomalies instead of destroying the music. Enjoy the music, not the ticks & pops.

  • DR-Analisys before converting to Flac
  • Converting Wave 32bit/96kHz -> Flac 24bit/96kHz: Twisted Wave
  • Artwork: Sony Alpha 350, Epson Perfection V750 Pro, Photoshop CS 5.5

If you like what i do, please consider that a little donation would be very appreciate. I reinvest all donations in maintenance of my rig, for purchasing cleaning solutions and, most important of all, purchasing of new vinyls.
Click on the “Donate”-button. Thank you very much 

Download from FileFactory
4 archives
PW: LaWally

14 thoughts on “Super HD-Vinyls 96/24 (Audite) G. Mahler – Symphony No. 6 (Kubelik)

  1. Dear Rach,

    now I am back again – after a couple of trouble and a long period of illness. Thank You for all Your fine and ambitious work – I am grateful, (You know), but poor ;-).
    I have got Wagner’s Ring on Vinyl (Furtwaengler in Scala de Milan 1950) in nearly mint quality (only one little scratch at one side) – U.S. pressing (Murray and Hills Records, 11 LP). You will get it soon, dear friend. May be, the quality could be sufficient enaugh for posting here?

  2. I greatly appreciate your effort to share such a wonderful collection. Thank heaven there are places like … where sharing is still possible. I just started downloading.

    Thanks very much!

  3. Dear Rach,

    Part 3 is now back online but the file seems damaged with CRC error for part 3. I’ve redownload twice and it’s still the same problem. Can you please check?

  4. I’m getting a corrupted part 3, as did rhythmic_impulse back in October. I’ve downloaded the file twice and tried extracting it with both WinRar and 7Zip, both to no avail. Any chance of re-upping?

  5. Hi Whatever!
    I’m sorry to confirm that part 3 is corrupted for me too.
    If by any chance you could check and upload it again, we’ll be many grateful people out there!
    Take care,

Leave a Reply