Particular HD-Vinyl 96/24 (EMI) Giuseppe Tartini – 4 Violin Concertos (Toso/Scimone)

front_small_boxset
How great, friends – this is a “must have”
Reposted, now with FF links

# Composer: Giuseppe Tartini
# Performer: Piero Toso
# Orchestra: I Solisti Veneti
# Conductor: Claudio Scimone
# Vinyl (1971)
# Number of Discs: 1
# Format: Flac
# Label: EMI
# DR-Analysis: DR 12
# ASIN: B00009RAXP
# Size: 1.02 GB
# Scan: yes
# Server: FileFactory

———————————————————————————————-
 Analyzed folder: /96kGiuTar_VioCons/96k Tartini – Violinkonzerte
———————————————————————————————-
 DR        Peak        RMS        Filename
———————————————————————————————-
 DR12        -3.53 dB     -20.30 dB     01 Violin Concerto A Major D 96 – Allegro.wav
 DR13        -5.32 dB     -23.93 dB     02 Violin Concerto A Major D 96 – Adagio.wav
 DR13        -3.32 dB     -20.18 dB     03 Violin Concerto A Major D 96 – Allegro.wav
 DR12        -7.88 dB     -25.07 dB     04 Violin Concerto A Major D 96 – Largo-Andante.wav
 DR13        -1.98 dB     -19.85 dB     05 Violin Concerto F Major D 67 – Allegro assai.wav
 DR13        -5.86 dB     -23.01 dB     06 Violin Concerto F Major D 67 – Andante cantabile.wav
 DR12        -1.60 dB     -18.36 dB     07 Violin Concerto F Major D 67 – Allegro.wav
 DR11        -1.92 dB     -18.59 dB     08 Violin Concerto h minor D 125 – Allegro assai.wav
 DR13        -6.74 dB     -24.32 dB     09 Violin Concerto h minor D 125 – Larghetto.wav
 DR11        -1.57 dB     -19.19 dB     10 Violin Concerto h minor D 125 – Allegro.wav
 DR12        -1.80 dB     -18.34 dB     11 Violin Concerto h minor D 2 – Allegro.wav
 DR12        -7.88 dB     -23.64 dB     12 Violin Concerto h minor D 2 – Adagio.wav
 DR12        -1.60 dB     -17.87 dB     13 Violin Concerto h minor D 2 – Allegro.wav
———————————————————————————————-
 Number of files:    13
 Official DR value:    DR12
==============================================================================================

Ripping Infos

  • RCM: Okki Nokki
  • TT: Clearaudio Champion Level II
  • System: Limited Edition Denon DL 103 SA
  • Phono stage: Pro-Ject Phono Box II
  • Pre Amp: Unison Research Unico Pre (Tube)
  • Finals: Opera Consonance 9.9 Mono (Tube)
  • Speakers: Dali Helikon 400
  • Connections: MIT Terminator, Audioquest Emerald, Audioquest Quartz
  • Software: iZotope RX Advanced v2.02, Adobe Audition CS 5.5, Twisted Wave 1.9
  • Light de-Clicking with iZotope, significant clicks manually removing, no De-Noising

If You hear some clicks and pops here and there, Who cares?
Id rather have a few light anomalies instead of destroying the music. Enjoy the music, not the ticks & pops

  • DR-Analisys before converting to Flac
  • Converting Wave -> Flac: Twisted Wave 1.9
  • Artwork: Sony Alpha 350, Epson Perfection V750 Pro, Photoshop CS 5.5

DONATION !
If you like what i do, please consider that a little donation would be very appreciate. I reinvest all donations in maintenance of my rig, for purchasing cleaning solutions and, most important of all, purchasing of new vinyls.
Click on the “Donate”-button. Thank you very much !


Download from FileFactory

3 archives
PW: LaWally

 

Leave a comment ?

43 Comments.

  1. Thank you so much for his beautiful music!

  2. Lovely. Thank you Rach.

  3. Beautiful violin pieces. Thanks!

  4. Thank you for this violin concertos 🙂

  5. Thanks.

    One can’t go wrong here.

  6. Giuseppe Tartini needs more love; thank you for posting his music Rach.

Leave a Comment