Audiophile HD-Vinyl 24/192 (BIS) Jean Sibelius – The Lemminkäinen Suite (Järvi)

Neeme Järvi’s recording of Sibelius’s Lemminkäinen Suite on BIS is one of the more satisfying accounts of this masterpiece in the catalogue. It comes across as structurally tighter than most, and does deliver a sense of inevitability to the music – no meandering here, and every note is taken to be an indispensable contribution to the whole. The end result is sometimes thrilling.
Audiophile factor: High!

Composer: Jean Sibelius
Orchestra: Gothenburg Symphony Orchestra
Conductor: Neeme Järvi
Vinyl (1985)
Number of discs: 1
Format: Flac
Label: BIS
DR 14
Size: 1.87 GB
Scan: yes
Server: FF

Analyzed folder: 192k Sibelius – The Lemminkaeinen Suite Op. 22 – Jaervi
DR        Peak        RMS        Filename
DR15        -0.50 dB     -21.05 dB     A1  1. Lemminkaeinen And The Maidens Of Saari.aif
DR14        -6.31 dB     -26.73 dB     A2  2. The Swan Of Tuonela.aif
DR13        -0.34 dB     -19.78 dB     B1  3. Lemminkaeinen In Tuonela.aif
DR13        -2.61 dB     -20.50 dB     B2  4. Lemminkaeinen’s Return.aif
Number of files:    4
Official DR value:    DR14


Ripping Info


  • Software: iZotope RX 4 Advanced, Adobe Audition CS 5.5, Twisted Wave 1.9
  • Super light de-clicking with iZotope, significant clicks manually removing, no de-noising
  • DR-Analisys before converting to Flac
  • Converting Wave -> Flac: Twisted Wave 1.9
  • Artwork: Sony Alpha 350, Epson Perfection V750 Pro, Photoshop CS 5.5

If you like what i do, please consider that a little donation would be very appreciated.
I reinvest all donations in maintenance of my rig, for purchasing cleaning solutions and, most important of all, purchasing of new vinyls.
Click on the “Donate”-button.

Thank you very much !

DL from FileFactory

PW: LaWally

13 thoughts on “Audiophile HD-Vinyl 24/192 (BIS) Jean Sibelius – The Lemminkäinen Suite (Järvi)

Leave a Reply