Audiophile HD-Vinyl 96/24 (Novalis) Franz Schubert – Piano Trio Op. 100

One of the most beautiful works in Chamber Music
Reposted, now with FF links

# Composer: Franz Schubert
# Performer: Gerhard Oppitz, Piano – Dmitry Sitkovetzky, Violine – David Geringas, Cello
# Vinyl (1985)
# Number of Discs: 1
# Format: Flac
# Label: Novalis
# DR-Analysis: DR 14
# ASIN: B000001MP8
# Size: 1.05 GB
# Scan: yes
# Server: FileFactory

Analyzed folder: /Users/alfredo/Desktop/ HiResMusic/96k Schubert – Piano Trio Op100/96k Schubert – Piano Trio Op100
DR        Peak        RMS        Filename
DR14        -2.36 dB     -21.00 dB     A1 Schubert – Piano Trio E flat Major Op100 – Allegro.wav
DR13        -1.67 dB     -21.15 dB     A2 Schubert – Piano Trio E flat Major Op100 – Andante con moto.wav
DR15        -2.92 dB     -22.31 dB     B1  Schubert – Piano Trio E flat Major Op100 – Scherzando – Allegro moderato.wav
DR13        -2.33 dB     -20.22 dB     B2  Schubert – Piano Trio E flat Major Op100 – Allegro moderato.wav
DR15        -2.55 dB     -22.17 dB     B3  Schubert – Sonatensatz ohne Op – Allegro.wav
Number of files:    5
Official DR value:    DR14

Ripping Infos


  • RCM: Okki Nokki
  • TT: Clearaudio Champion Level II
  • System: Special Edition Denon DL 103
  • Phono stage: Pro-Ject Phono Box II
  • Pre Amp: Unison Research Unico Pre (Tube)
  • Finals: Opera Consonance 9.9 Mono (Tube)
  • Speakers: Dali Helikon 400
  • Connections: MIT Terminator, Audioquest Emerald, Audioquest Quartz


  • Software: iZotope RX Advanced v2.02, Adobe Audition CS 5.5, Twisted Wave 1.9
  • Light de-Clicking with ClickRepair, significant clicks manually removing, no De-Noising


If You hear some clicks and pops here and there, Who cares?
Id rather have a few light anomalies instead of destroying the music. Enjoy the music, not the ticks & pops.


  • DR-Analisys before converting to Flac
  • Converting Wave -> Flac: Twisted Wave 1.9
  • Artwork: Sony Alpha 350, Epson Perfection V750 Pro, Photoshop CS 5.5


If you like what i do, please consider that a little donation would be very appreciate. I reinvest all donations in maintenance of my rig, for purchasing cleaning solutions and, most important of all, purchasing of new vinyls.
Click on the “Donate”-button. Thank you very much !


Download from FileFactory

3 archives
PW: LaWally

28 thoughts on “Audiophile HD-Vinyl 96/24 (Novalis) Franz Schubert – Piano Trio Op. 100

  1. Classical heritage contains many masterpieces in the genre of piano trio. Among the most beautiful examples are the trios by Mozart, Beethoven, Mendelssohn, Tchaikovsky, Taneyev, Rheinberger, Faure, Shostakovich. The another terrific piano trio by Schubert should also be mentioned. But, to my taste, this piano trio in E flat D929 is the crown of this list. It is incomparable. Genial use of consonant melodies, of variations and repetitions combines the cycle into the united whole. And so much here speaks directly to heart and lifts the soul.
    I should also add that here we have very good performance of this masterpiece.
    Thank you very much for your work, dear Mr.Rachmaninov!

  2. let me add my praise to the list also. wonderful, wonderful music. Like Bob, I didn’t know the pieces either, but wow. One of the best you’ve ever posted. I’ve listened twice through already and am going to have another listen tonight

    hope all’s well with you Rach

    • Hi K.
      I’m fine, thank you. Everytime i hear the second mov. i’m always thinking of a beautiful movie with “my” goddess Catherine Denevue and the fantastic Susan Sarandon, further with a small role by David Bowie. The movie’s title is “The Hunger”, a story of vampires in our days, the movie is about 30 years old.

  3. Dear mcluhan,

    Part 3 is already posted… I believe Rach just finished uploading it…

    Please make sure to look at the times of uploads, this files take quite a while to upload, and we need to be a little patient 😉

    All the best!

    Mario 😀

  4. Hallo lieber Rachmaninoff ,dieses wunderbare Schubertrio wird von einem Trio gespielt, das leider nur kurz bestand und nur ca. 3 Lps eingespielt hat. Ich freue mich auf weitere Aufnahmen.
    Gruß Trottar

    • Hallo Trottar,
      leider habe ich nichts mehr an Kammermusik, da es nicht unbedingt mein Ding ist. Aber sicherlich fehlt es mir an den nötigen Kenntnissen. Diese LP ist allerdings von mir gesucht und gefunden worden, da Teile der Musik in einem Film vorkommen, der eine Zeit lang mein Lieblingsfilm war.
      Ciao 😉 Rach

  5. Simply a beautiful interpretation of one of those gems given to us by a genius who didn’t live to be 32 years old.
    Thank you very much. It would be great if you developed a taste for chamber music too… I say this not just for us!

Leave a Reply