Audiophile HD-Vinyls 24/192 (BIS) Wolfgang Amadeus Mozart – Piano Concerto No. 21, Sinfonia Concertante (Scheja, Lydell, Sparf, Wedin)


Many thanks to our friend Dagote for this audiophile pearl
There are numerous accounts of the famous Elvira Madigan concerto, so called because the second movement is featured in the movie, but this performance is as fine as any, with Scheja absolutely sparkling at the keyboard and Wedin providing crisp, energetic backup. This is one of the sunniest pieces of music ever written, it will brighten up almost any mood. Who says, you always have to have only the best known artists and orchestras? Listen to this and be happy! Highly recommended!

Composer: Wolfgang Amadeus Mozart
Performer: Staffan Scheja, Nils-Erik Sparf, Bernt Lysell
Orchestra: The Stockholm Sinfonietta
Conductor: Jan-Olav Wedin
Vinyl 1982
Number of Discs: 1
Format: FLAC
Label: BIS
DR-Analysis: DR 12
Size: 2.42 GB
Scan: yes
Server: FF

Tracklist

  Piano Concerto No. 21 In C Major
A1 Allegro Maestoso 14:58
A2 Andante 6:54
A3 Allegro Vivace Assai 6:21
  Sinfonia Concertante In E Flat Major
B1 Allegro Maestoso 13:42
B2 Andante 12:21
B3 Presto 6:54

 

———————————————————————————————-
Analyzed Folder: /192k WAM – Piano Concerto No. 21, Sinfonia Concertante – Lysell, Sparf
———————————————————————————————-
DR Peak RMS Filename
———————————————————————————————-

DR12 -0.37 dB -16.65 dB A1 Piano Concerto No. 21 In C Major – Allegro Maestoso.flac
DR11 -7.16 dB -22.63 dB A2 Piano Concerto No. 21 In C Major – Andante.flac
DR14 -0.66 dB -19.40 dB A3 Piano Concerto No. 21 In C Major – Allegro Vivace Assai.flac
DR12 -0.37 dB -16.83 dB B1 Sinfonia Concertante In E Flat Major – Allegro Maestoso.flac
DR13 -1.78 dB -20.62 dB B2 Sinfonia Concertante In E Flat Major – Andante.flac
DR12 -1.84 dB -17.94 dB B3 Sinfonia Concertante In E Flat Major – Presto.flac
———————————————————————————————-

Number of Files: 6
Official DR Value: DR12

==============================================================================================

 

Credits

  • Conductor – Jan-Olav Wedin
  • Engineer – Robert Von Bahr
  • Liner Notes – Per Skans
  • Orchestra – The Stockholm Sinfonietta
  • Piano – Staffan Scheja (tracks: A1, A2, A3)
  • Producer – Robert Von Bahr
  • Viola – Nils-Erik Sparf (tracks: B1, B2, B3)
  • Violin – Bernt Lysell (tracks: B1, B2, B3)
Recorded 1982-04-08/09 at the Concert Hall, Stockholm.

 

Ripping Info

Monitoring

  • Software: iZotope RX 5 Advanced, Adobe Audition CS 5.5, Twisted Wave 1.18
  • Very careful de-clicking with iZotope, significant clicks manually removed, never de-noising
  • DR-Analisys
  • Wave 32/192(32/384) —> Flac 24/96(24/192): Twisted Wave 1.18
  • Artwork: Sony Alpha 350, Epson Perfection V750 Pro, Photoshop CS 5.5

 

 

8 thoughts on “Audiophile HD-Vinyls 24/192 (BIS) Wolfgang Amadeus Mozart – Piano Concerto No. 21, Sinfonia Concertante (Scheja, Lydell, Sparf, Wedin)”

Leave a Reply