Audiophile HD-Vinyls 24/96 (RCA) Giuseppe Verdi – Ernani (Price/Bergonzi)

Many many thanks to a benefactor from Lake Michigan for this gift
I get so often criticised for finding faults with singers like Netrebko or Kaufmann. But, seriously, if we haste to call these singers great, what are we going to do with Leontyne Price and Carlo Bergonzi? Then, they say “you shouldn’t make comparisons”. Well, it is not possible to avoid comparisons. This disc is a model of great Verdi singing and interpretation. I do not think there has been a greater Verdian singer in the recorded history of opera than Leontyne Price. Whether it is Forza, Trovatore, Ernani, Aida the woman knows her business. There is no kidding here. Carlo Bergonzi rises to the challenge 100%. Thomas Schippers left all TOO young. He had SO MUCH to give.

# Composer:  Giuseppe Verdi
# Performer: Leontyne Price, Carlo Bergonzi, Mario Sereni, Ezio Glagello
# Orchestra:  RCA Italiana Opera Orchestra
# Conductor: Thomas Schippers
# Vinyl 1968
# Number of Discs: 3
# Format: FLAC
# Label: RCA
# DR-Analysis: DR 14
# Size: 2.66 GB
# Scan: yes
# Server: FileFactory

ERNANI is one of Verdi’s earlier operas that doesn’t get staged all that often. For a while it was performed somewhat frequently in Italy, and there have been some notable stagings of the work at New York’s Metropolitan Opera, but the revivals are not because it is a long neglected work as mush as it’s a showcase for performers who want to display their vocal skills, and this opera gives great singers a variety of opportunities to give the listener vocal fireworks. The story of the opera is not one of the all time great opera plots: a displaced nobleman becomes a thief, tries to capture the woman he loves so that she won’t marry his rival, in a strange turn of events manages to gain her hand in marriage, only to kill himself later because honor is greater than love. It doesn’t make all that much sense to listeners today, but it contains all the trappings of opera and in its day was a crowd pleaser, due to the wonderful music. We find a maturing Verdi who is about to reach his stride, the same Verdi who will soon give the world favorites such as RIGOLETTO, LA TRAVIATA, and IL TROVATORE. Like Verdi’s great mid period works, it has catchy arias that are show stoppers and rousing choruses that Verdi lovers have grown to love.

The two principals: Leontyne Price as Elvira and Carlo Bergonzi in the title role are spectacular and the robust conducting of Thomas Schippers shows us what we missed by losing him just as his career was rising. Bergonzi’s voice is smooth and Price, who is in top vocal form, is spellbinding. We really don’t get an emotive quality in either performance, perhaps because getting into the roles may be somewhat difficult, but the beauty of the singing makes up for any lack of dramatic intensity and since there aren’t scores of this opera in recorded form, I’m not sure we miss it. It’s an opera that’s fun to listen to from time to time and when listening to it, we see glimpses of what is yet to come in the Verdi canon. Perhaps because of the Spanish setting, as well as some of the arias, duets, and trios, listeners are reminded of TROVATORE and FORZA.

Analyzed folder: /96k Verdi – Ernani – Price-Bergonzi
DR        Peak        RMS        Filename
DR14        -0.81 dB     -19.95 dB     sideA.wav
DR15        -0.82 dB     -20.51 dB     sideB.wav
DR12        -1.10 dB     -18.89 dB     sideC.wav
DR13        -1.21 dB     -20.20 dB     sideD.wav
DR14        -0.71 dB     -20.44 dB     sideE.wav
DR14        -0.53 dB     -21.53 dB     sideF.wav
Number of files:    6
Official DR value:    DR14

Ripping Infos


If You hear some clicks and pops here and there, Who cares?
Id rather have a few light anomalies instead of destroying the music.
Enjoy the music, not the ticks & pops.
I tend more and more, in the last time, to de-click with an automatic setting between 0.7 and 1.2 so you can say, my rips are like half rough rips.

  • Software: iZotope RX 4 Advanced, Adobe Audition CS 5.5, Twisted Wave 1.9
  • Very light de-clicking with iZotope, significant clicks manually removing, no de-noising
  • DR-Analisys before converting to Flac
  • Converting Wave -> Flac: Twisted Wave 1.9
  • Artwork: Sony Alpha 350, Epson Perfection V750 Pro, Photoshop CS 5.5

If you like what i do, please consider that a little donation would be very appreciate.
I reinvest all donations in maintenance of my rig, for purchasing cleaning solutions and, most important of all, purchasing of new vinyls.

Click on the “Donate”-button. Thank you very much !

Download from FileFactory
7 archives
PW: LaWally


21 thoughts on “Audiophile HD-Vinyls 24/96 (RCA) Giuseppe Verdi – Ernani (Price/Bergonzi)

  1. What can I say: VIVA Verdi! The chorus is immaculately beautiful, and it all comes together from there on. The chivalric sense of personal honor in this story is like the Knights of the round Table, except Lancelot blew the lid off Camelot. Oh, well, Ernani is gorgeous, Camelot or no Camelot. Silva is hardly King Arthur either. I saw Sherrill Milnes as Carlo in this in Washington D.C. at the Kennedy Center. You are right: He was the star of the show and his big Act 3 aria, Gran Dio! just before going into Charlemagne’s tomb: he brought the house down with is tenoric high notes. Wow! Thanks for this rendition you’ve done, it is clear as a bell, and Price is phenomenal!

  2. “They say you shouldn’t make comparisons…” Well, I appreciate your comments. I am still learning what to listen for and value in opera and am glad for the comparisons.

  3. Ah – but this post is (now) broken. Somehow the last part (RAR volume 7 ) has become corrupted. I have downloaded it several times from FileFactory and even tried a RAR repair using the recovery record.

    Can you fix this please?

    Thanks again.

  4. I’m having the same issue with Part 7 as Podyelka. I extracted it but there are skips shortly after 12 min then it stops playing after 14 min. The 1st 5 parts are lovely. Leontyne’s lush voice sounds terrific.

  5. I can only say again: part 7 works perfectly on my side. Maybe you experience advices of the kind “No free slots, wait or upload to premium”. Check it on going direct to the FF page for DL

  6. The new upload resolved the crc errors. Thank you very much, Rachmaninov. I have much admiration for Leontyne and Bergonzi is superb too.

  7. Hallo Alf, kannst Du bitte die No.4 (vom 25.8.2015) neu herunteladen, da nicht funkioniert. Dann kann ich diese hervorragende Aufnahme bald hören. Gruß Hayo

Leave a Reply