Audiophile HD-Vinyl 24/192 (Jeton) Frederik Chopin – Bianca Maria Cian


New rip, made with the 2013 rig and in 24/192

# Composer: Frederik Chopin
# Performer: Bianca Maria Cian
# Vinyl (1979)
# Number of Discs: 1
# Format: Flac
# Label: Jeton
# DR-Analysis: DR 15
# ASIN CD: never on CD

# Size: 1.21 GB
# Scan: yes
# Server: FileFactory


Jeton was a great audiophile label from Germany. Behind the name Jeton stood the little but fine recordings studio “Tonstudio Bauer” from Ludwigsburg.

They made in the 70s and early 80s some of the best sounding records worldwide and these records are very very hard to find. But most of them can you find on CD (under the label BELL).

Under the most desirable records are, of course, the recordings of the “direct-to-disc”-Serie, that was very limited. The sound is great, non-spectacular, right warm, even closer to the reality.

The italian pianist Bianca Maria Cian performs in this recording from the year 1979, the Sonata No. 2 in B-minor op. 35 and the Nocturne in F Sharp-Major op. 15 No. 2

This is one of the last rips (March 2014) made with the Sumiko Black Bird before the crash

Analyzed folder: /192k(JET)Ch_BMC/192k(JET) Chopin – Bianca Maria Cian
DR        Peak        RMS        Filename
DR15        -0.54 dB     -20.39 dB     A1 Chopin – Piano Sonata No.2 in B flat minor, Op.35 – 1. Grave – Doppio movimento.wav

DR15        -1.25 dB     -23.19 dB     A2 Chopin – Piano Sonata No.2 in B flat minor, Op.35 – 2. Scherzo – Piu’ lento – Tempo I.wav
DR17        -1.54 dB     -24.48 dB     B1 Chopin – Piano Sonata No.2 in B flat minor, Op.35 – 3. Marche funebre (Lento).wav
DR12        -1.10 dB     -25.19 dB     B2 Chopin – Piano Sonata No.2 in B flat minor, Op.35 – 4. Finale (Presto).wav
DR15        -1.31 dB     -24.04 dB     B3 Chopin – Nocturne F Sharp-Major Op.15 ‘Trauermarschsonate’.wav
Number of files:    5

Official DR value:    DR15

Ripping Infos

  • RCM: Okki Nokki (L’art du son, Clearaudio’s Diamond Cleaner)
  • TT: Clearaudio Champion Level II
  • Cartridge: Sumiko Black Bird
  • Phono amp: Pro-Ject Phono Box RS
  • ADC/DAC: RME Fireface UC
  • Pre Amp: Unison Research Unico Pre (Tube)
  • Finals: Opera Consonance 9.9 Mono (Tube)
  • Speakers: Dali Helikon 400
  • Connections: MIT Terminator, Audioquest Emerald, Audioquest Quartz
  • Software: iZotope RX Advanced v2.02, Adobe Audition CS 5.5, Twisted Wave 1.9
  • Light de-clicking with iZotope, significant clicks manually removing, no de-noising

This time, (almost) no de-clicking needed

If You hear some clicks and pops here and there, Who cares?
Id rather have a few light anomalies instead of destroying the music. Enjoy the music, not the ticks & pops.

  • DR-Analisys before converting to Flac
  • Converting Wave -> Flac: Twisted Wave 1.9
  • Artwork: Sony Alpha 350, Epson Perfection V750 Pro, Photoshop CS 5.5


If you like what i do, please consider that a little donation would be very appreciate.
I reinvest all donations in maintenance of my rig, for purchasing cleaning solutions and, most important of all, purchasing of new vinyls.
Click on the “Donate”-button. Thank you very much !

Download from FileFactory
3 archives

PW: LaWally

17 thoughts on “Audiophile HD-Vinyl 24/192 (Jeton) Frederik Chopin – Bianca Maria Cian

    • If you see it strictly, it’s live. During recording the artist has to be concentrated to the maximum, because an error means that the record session must be repeated – so the laque (the 1st matrix) will be destroyed, what means costs over costs.

      I love direct-to-disc productions 🙂

  1. Hello Rachmaninov,

    I dowloaded this yesterday and I wanted to listen only 5 min… after 5 min I couldn’t stop anymore until the end…

    Thank you for this.

Leave a Reply