Audiophile Vinyl (RCA) Verdi – Aida (Price/Domingo/Milnes)

Reposted – now on FF

# Composer: Giuseppe Verdi
# Performer: Leontyne Price, Placido Domingo, Sherrill Milnes, Grace Bumbry a.o.
# Orchestra: London Symphony Orchestra
# Conductor: Erich Leinsdorf
# Vinyl (1970)
# Number of Discs: 3
# Format: Flac
# DR-Analysis: DR 11
# Label: RCA
# ASIN: B00000JPBH
# Size: 631 MB
# Scan: yes
# Server: FF

Analyzed folder: /Volumes/PSK & MUSIC/HiResMusic/KLASSIK EIGENE/LowRes/Verdi-Aida-Price-Domingo-Milnes
DR        Peak        RMS        Filename

DR11        -2.18 dB     -18.84 dB     01 side1.wav
DR9        -1.51 dB     -17.33 dB     02 side2_1.wav
DR12        -0.14 dB     -17.30 dB     03 side2_2.wav
DR10        over        -14.61 dB     04 side3.wav
DR13        -2.31 dB     -21.49 dB     05 side4.wav
DR10        -1.00 dB     -16.20 dB     06 side5_1.wav
DR11        -1.66 dB     -17.68 dB     07 side5_2.wav
DR10        -0.64 dB     -15.24 dB     08 side6_1.wav
DR14        -1.78 dB     -21.50 dB     09 side6_2.wav

Number of files:    9
Official DR value:    DR11


If you like what i do, please consider that a little donation would be very appreciate. I reinvest all donations in maintenance of my rig, for purchasing cleaning solutions and, most important of all, purchasing of new vinyls.

Click on the “Donate”-button. Thank you very much !

FileFactory Download

2 archives
PW: LaWally

10 thoughts on “Audiophile Vinyl (RCA) Verdi – Aida (Price/Domingo/Milnes)

  1. 😳 I don´t like too much the sound. After listen the first compases sounds like if somebody was sweeping each time that the music appears. My foobar check around 600kb 44.000 hz. Anyway thanks for the vinyl, i appreciate you so much.
    See you.

  2. why not in 96k ? I have already this version in 44k in Brillant classics edtion. But thank you very much to you “du fond du coeur” for the music

    • This is a copy i made for my personal joy before i sold the vinyls, in a time, where i didn’t have a mind about 24bit & 96kHz….unfortunately….

Leave a Reply