HD-Vinyl 24/96 (DGG) Ludwig van Beethoven – 200 Years Edition, Box 11, Music For The Stage (3 LPs)

front-small-boxset11
This is Box No. 11 of the Bicentennial Beethoven Collection, published by Deutsche Grammophon 1970, to celebrate Beethoven’s 200th birthday with all his works on 12 Box-Sets/75 LPs.
In the last years I spent only for this Beethoven Edition around 500-550 EUR. If you think and feel, you want to contribute, any donation will be welcome. Thank you!

Composer: Ludwig van Beethoven
Performer: Gundula Janowitz, Erich Schellow
Orchestra: Berliner Philharmoniker
Conductor: Herbert von Karajan
Number of Discs: 3/75
Format: Flac
Label: Deutsche Grammophon Gesellschaft
DR-Analysis: DR 16
Size: 3.77 GB
Scan: yes
Server: FileFactory

———————————————————————————————-
 Analyzed folder: /96k LvB – Works For Piano – Kempff, Anda, Shetler, Demus
———————————————————————————————-
 DR        Peak        RMS        Filename
———————————————————————————————-
 DR15        -2.11 dB     -22.28 dB     A1 Klaviersonate Nr. 1 F-Moll Op. 2 Nr. 1 – 1. Satz- Allegro.aif
 DR17        -4.19 dB     -27.25 dB     A2 Klaviersonate Nr. 1 F-Moll Op. 2 Nr. 1 – 2. Satz- Adagio.aif
 DR14        -3.79 dB     -22.13 dB     E4 Klaviersonate Nr. 6 F-Dur Op. 10 Nr. 2 – 1. Allegro.aif
 DR15        -3.48 dB     -25.30 dB     E5 Klaviersonate Nr. 6 F-Dur Op. 10 Nr. 2 – 2. Allegretto.aif
 DR14        -2.83 dB     -21.43 dB     E6 Klaviersonate Nr. 6 F-Dur Op. 10 Nr. 2 – 3. Presto.aif
 DR15        -1.66 dB     -20.70 dB     ZB3 Grosse Fuge B-Dur Fuer Klavier Zu Vier Haenden Op. 134 .aif
———————————————————————————————-
 Number of files:    125
 Official DR value:    DR15
==============================================================================================
Credits
  • Composed By – Ludwig van Beethoven
  • Engineer – Günter Hermanns
  • Liner Notes – Hubert Daschner
  • Producer – Otto Gerdes
  • Recording Supervisor [Aufnahmeleiter] – Hans Weber
  • Soprano Vocals – Gundula Janowitz, Erich Schellow
  • Voice Actor – Erich Schellow (tracks: E1 to F6)

Ripping Info

Monitoring

  • Software: iZotope RX 4 Advanced, Adobe Audition CS 5.5, Twisted Wave 1.9
  • Super light de-clicking with iZotope, significant clicks manually removing, no de-noising
  • DR-Analisys before converting to Flac
  • Converting Wave -> Flac: Twisted Wave 1.9
  • Artwork: Sony Alpha 350, Epson Perfection V750 Pro, Photoshop CS 5.5

DONATION !
If you like what i do, please consider that a little donation would be very appreciated.
I reinvest all donations in maintenance of my rig, for purchasing cleaning solutions and, most important of all, purchasing of new vinyls.
Click on the “Donate”-button.

Thank you very much !

DL from FileFactory
7
archives
Artwork

PW: LaWally

13 thoughts on “HD-Vinyl 24/96 (DGG) Ludwig van Beethoven – 200 Years Edition, Box 11, Music For The Stage (3 LPs)”

Leave a Reply