HD-Vinyl 24/96 (DGG) Ludwig van Beethoven – 200 Years Edition, Box 9, The Masses (3 LPs)

front-small-boxset09
This is Box No. 9 of the Bicentennial Beethoven Collection, published by Deutsche Grammophon 1970, to celebrate Beethoven’s 200th birthday with all his works on 12 Box-Sets/75 LPs.
In the last years I spent only for this Beethoven Edition around 500-550 EUR. If you think and feel, you want to contribute, any donation will be welcome. Thank you!

Composer: Ludwig van Beethoven
Performer (Missa Solemnis): Gundula Janowitz, Christa Ludwig, Fritz Wunderlich, Walter Berry, Wiener Singverein
Performer (Messe C-Dur): Gundula Janowitz, Julia Hamari, Elmar Schloter, Horst Laubenthal, Ernst Gerold Schramm
Orchestra: Berliner Philharmoniker (Missa Solemnis), Münchener Bach-Chor Und Bach-Orchester (Messe C-Dur)
Conductor: , Karl Richter (Messe C-Dur), Herbert von Karajan (Missa Solemnis)
Number of Discs: 3/75

Format: Flac
Label: Deutsche Grammophon Gesellschaft
DR-Analysis: DR 13
Size: 2.59 GB
Scan: yes
Server: FileFactory

———————————————————————————————-
Analyzed folder: /96k LvB – The Masses – Richter, Karajan
———————————————————————————————-
DR        Peak        RMS        Filename
———————————————————————————————-
DR12        -3.14 dB     -19.56 dB     A1 Missa Solemnis D-Dur Op. 123 – Kyrie.aif
DR12        -1.13 dB     -17.23 dB     A2 Missa Solemnis D-Dur Op. 123 – Gloria.aif
DR13        -1.12 dB     -18.58 dB     B Missa Solemnis D-Dur Op. 123 – Credo.aif
DR13        -1.01 dB     -19.92 dB     C Missa Solemnis D-Dur Op. 123 – Sanctus – Benedictus.aif
DR13        -0.34 dB     -18.14 dB     D Missa Solemnis D-Dur Op. 123 – Agnus Dei.aif
DR13        -1.60 dB     -20.30 dB     E1 Messe C-Dur Op. 86 – Kyrie.aif
DR13        -1.06 dB     -18.29 dB     E2 Messe C-Dur Op. 86 – Gloria.aif
DR13        -0.66 dB     -18.51 dB     E3 Messe C-Dur Op. 86 – Credo.aif
DR14        -0.35 dB     -19.95 dB     F1 Messe C-Dur Op. 86 – Sanctus.aif
DR13        -0.86 dB     -19.65 dB     F2 Messe C-Dur Op. 86 – Agnus Dei.aif
———————————————————————————————-
Number of files:    10
Official DR value:    DR13
==============================================================================================

Ripping Info

Monitoring

  • Software: iZotope RX 4 Advanced, Adobe Audition CS 5.5, Twisted Wave 1.9
  • Super light de-clicking with iZotope, significant clicks manually removing, no de-noising
  • DR-Analisys before converting to Flac
  • Converting Wave -> Flac: Twisted Wave 1.9
  • Artwork: Sony Alpha 350, Epson Perfection V750 Pro, Photoshop CS 5.5

DONATION !
If you like what i do, please consider that a little donation would be very appreciated.
I reinvest all donations in maintenance of my rig, for purchasing cleaning solutions and, most important of all, purchasing of new vinyls.
Click on the “Donate”-button.

Thank you very much !

DL from FileFactory
5
archives
Artwork

PW: LaWally

10 thoughts on “HD-Vinyl 24/96 (DGG) Ludwig van Beethoven – 200 Years Edition, Box 9, The Masses (3 LPs)”

  1. Thanks a million for your dedication to share and great taste for vinyl records, Rach. We are many for follow this LvB series and it’s a joy.

Leave a Reply