HD-Vinyls 24/96 (Decca) Joaquín Rodrigo – Concierto De Aranjuez, Fantasía Para Un Gentilhombre (Bonell/Dutoit)

Thousand thanks to our friend Mats for this gem
“Concierto de Aranjuez” is one of the best songs ever written, a masterpiece written by Joaquin Rodrigo, the song is pure Spanish magic. The other song is “Fantasia para un gentilhombre”, another song penned by Rodrigo, it is just beautiful and evokes the essence of the elegant Spanish tradition. Once you’ve heard these songs you will be hooked and the song will play in your head long after it is not playing. Both of these songs have been performed by various artists but this is one of the best performances captured in Montreal in 1980-81. Carlos Bonnel is a maestro on guitar and Charles Dutoit is masterful conducting the Orchestre Symphonique De Montreal. This is one of those “classic” performances that sounds good no matter the time period it was recorded in.

# Composer: Joaquín Rodrigo
# Performer: Carlos Bonell
# Orchestra: L’Orchestre Symphonique De Montreal
Conductor: Charles Dutoit
Vinyl (1981)
Number of Discs: 1
Format: Flac
Label: Decca
DR-Analysis: DR 14
Size: 1.09 GB
Scan: yes
Server: FileFactory


  Concierto De Aranjuez (1939)
A1 Allegro Con Spirito 6:10
A2 Adagio 10:51
A3 Allegro Gentile 5:15
  Fantasía Para Un Gentilhombre (1954)
B1 Villano: Adagietto – Ricercare: Andante Moderato 4:32
B2 Españoleta: Adagio – Fanfare De La Caballería De Nápoles: Allegretto 9:28
B3 Danza De Las Hachas: Allegro Con Brio 2:02
B4 Canario: Allegro Ma Non Troppo 5:05


Analyzed folder: /96k Rodrigo – Conciertos ‘Aranjuez’ y ‘Gentilhombre’ – Bonell, Dutoit
DR        Peak        RMS        Filename
DR14        -0.65 dB     -20.74 dB     A1 Concierto De Aranjuez – Allegro Con Spirito.aif
DR14        -1.18 dB     -22.40 dB     A2 Concierto De Aranjuez – Adagio.aif
DR15        -3.43 dB     -24.75 dB     A3 Concierto De Aranjuez – Allegro Gentile.aif
DR14        -3.54 dB     -22.61 dB     B1 Fantasia Para Un Gentilhombre – Villano- Adagietto – Ricercare, Andante Moderato.aif
DR15        -6.37 dB     -26.96 dB     B2 Fantasia Para Un Gentilhombre – Espanoleta Y Fanfare De La Caballeria De Napoles.aif
DR13        -0.71 dB     -19.64 dB     B3 Fantasia Para Un Gentilhombre – Danza De Las Haches.aif
DR15        -2.19 dB     -24.13 dB     B4 Fantasia Para Un Gentilhombre – Canario.aif
Number of files:    7
Official DR value:    DR14

Ripping Info


If You hear some clicks and pops here and there, Who cares?
Id rather have a few light anomalies instead of destroying the music.
Enjoy the music, not the ticks & pops.

  • Software: iZotope RX 4 Advanced, Adobe Audition CS 5.5, Twisted Wave 1.9
  • Super-light de-clicking with iZotope, significant clicks manually removing, no de-noising
  • DR-Analisys before converting to Flac
  • Converting Wave -> Flac: Twisted Wave 1.9
  • Artwork: Sony Alpha 350, Epson Perfection V750 Pro, Photoshop CS 5.5

If you like what i do, please consider that a little donation would be very appreciate.
I reinvest all donations in maintenance of my rig, for purchasing cleaning solutions and, most important of all, purchasing of new vinyls.

Click on the “Donate”-button. Thank you very much !

Download from FileFactory
2 archives
PW: LaWally


7 thoughts on “HD-Vinyls 24/96 (Decca) Joaquín Rodrigo – Concierto De Aranjuez, Fantasía Para Un Gentilhombre (Bonell/Dutoit)

  1. Nice, Rach,
    But I put it in the same Rodrigo category as your earlier one. I like the earlier one better.
    But I want them both; no argument about that.
    Hope you have had a good year, and looking forward to even better 2016.
    Thanks for everything.

Leave a Reply