HD-Vinyls 24/96 (Philips) Volume 8 – EDIZIONE VIVALDI by Philips on 49 LPs

front_small_boxset08
Box 08 with 6 LPs
This is a project I wanted to realize for my life and I started to buy the box-sets from all over the world. It took me around 3 years, because I wanted only Mint or NearMint box-sets. So 3 of them are Mint and never played, all the other are NM. The whole collection costed me almost 600 EUR…if you feel, you want to contribute to this Herakles-work, so you are welcome.
Click on the donation button, at the end of this post.

# Composer: Antonio Vivaldi
# Performer: many artists
# Orchestra: I Musici
# Vinyl 1959-1978
# Number of Discs: 6/49
# Format: Flac
# Label: Philips
# DR-Analysis: DR 14
#
Size: 5.91 GB
# Scan: yes
# Server: Fi
leFactory

I MUSICI, SALVATORE ACCARDO, FRANCO GULLI, JEAN CLAUDE VEILHAN, MAURICE GENDRON, BRUNO CANINO, BLANDINE VERLET, ROHAN DE SARAM, FELIX AYO, ROBERTO MICHELUCCI, PINA CARMIRELLI, HEINZ HOLLIGER, SEVERINO GAZZELONI, BRUNO GIURANNA, CHRISTINE WALEVSKA, VITTORIO NEGRI, KURT REDEL, KLAUS THUNEMANN, ELLY AMELING, AGNES GIEBEL, JULIA HAMARI, BIRGIT FINNILÄ, VITTORIO NEGRI

I realised after upload was completed, there are typos.
Please rename the files

LP1 – B2
from
Concerto For 2 Violins, Strings And Continuo in G-Minor R.411
to
Concerto For 2 Cellos, Strings And Continuo in G-Minor R.531

LP2 – A2
from
Concerto For Cello, Strings And Continuo in C-Minor R.434
to
Concerto For Cello, Strings And Continuo in C-Minor R.401

LP2 – B2
from
LP2 – B2 Concerto For Violin, Cello, Strings And Continuo in B-Major R.388
to
LP2 – B2 Concerto For Violin, Cello, Strings And Continuo in B-Major R.547

LP5 – A3
from
LP5 – A3 Concerto For Strings And Continuo in G-Minor R.15a
to
LP5 – A3 Concerto For Strings And Continuo in G-Minor R.154

 

———————————————————————————————-
Analyzed folder: /Volume08 (6LPs) 1964-78
———————————————————————————————-
DR        Peak        RMS        Filename
———————————————————————————————-

DR13        -1.55 dB     -18.98 dB     Box08 LP1 – A1 Concerto For Strings And Continuo A-Major R.158.wav
DR13        -1.60 dB     -20.67 dB     Box08 LP1 – A2 Concerto For Violin, Organ And Strings F-Major R.542.wav
DR12        -2.08 dB     -18.33 dB     Box08 LP1 – A3 Concerto For Strings And Continuo G-Minor R.153.wav
DR13        -1.60 dB     -19.51 dB     Box08 LP1 – B1 Concerto For 2 Violins, Strings And Continuo B-Major R.527.wav
DR12        -1.71 dB     -18.84 dB     Box08 LP1 – B2 Concerto For 2 Violins, Strings And Continuo G-Minor R.411.wav
DR13        -1.39 dB     -18.12 dB     Box08 LP1 – B3 Concerto For Strings And Continuo E-Minor R.134.wav
DR13        -0.84 dB     -18.00 dB     Box08 LP2 – A1 Concerto For 2 Violins, Strings And Continuo A-Minor R.523.wav
DR13        -1.46 dB     -19.11 dB     Box08 LP2 – A2 Concerto For Cello, Strings And Continuo C-Minor R.434.wav
DR13        -1.15 dB     -20.29 dB     Box08 LP2 – B1 Concerto For Violin, Strings And Continuo ‘L’Amoroso’ E-Major R.246.wav
DR13        -0.27 dB     -18.08 dB     Box08 LP2 – B2 Concerto For Violin, Cello, Strings And Continuo B-Major R.388.wav
DR14        -0.70 dB     -18.55 dB     Box08 LP3 – A1 Concerto For 2 Violins, 2 Celli, Strings And Continuo G-Major R.575.wav
DR14        -0.90 dB     -20.03 dB     Box08 LP3 – A2 Concerto For 2 Violins, Strings And Continuo B-Major R.525.wav
DR15        -1.23 dB     -19.92 dB     Box08 LP3 – B1 Concerto For Violin, Cello, Strings And Continuo A-Major R.546.wav
DR14        -0.66 dB     -19.47 dB     Box08 LP3 – B2 Concerto For 4 Violins, Strings And Continuo B-Major R.553.wav
DR13        -1.59 dB     -18.96 dB     Box08 LP4 – A1 Concerto For 3 Violins,Strings And Continuo F-Major R.551.wav
DR13        -3.34 dB     -20.71 dB     Box08 LP4 – A2 Concerto For 2 Violins And 2 Violoncelli D-Minor R.564.wav
DR14        -1.91 dB     -21.41 dB     Box08 LP4 – B1 Concerto For Solo Violin And Violin A-Major R.552.wav
DR12        -3.86 dB     -20.29 dB     Box08 LP4 – B2 Concerto For Strings And Continuo D-Minor R.129.wav
DR13        -0.96 dB     -19.82 dB     Box08 LP4 – B3 Sonata a 4 E flat-Major R.130.wav
DR12        -2.79 dB     -18.03 dB     Box08 LP5 – A1 Concerto For Strings And Continuo G-Minor R.157.wav
DR13        -2.17 dB     -19.10 dB     Box08 LP5 – A2 Concerto For Strings And Continuo D-Major R.126.wav
DR12        -2.48 dB     -18.71 dB     Box08 LP5 – A3 Concerto For Strings And Continuo G-Minor R.15a.wav
DR13        -1.08 dB     -18.03 dB     Box08 LP5 – A4 Concerto For Strings And Continuo F-Major R.138.wav
DR12        -1.97 dB     -17.47 dB     Box08 LP5 – B1 Concerto For Strings And Continuo F-Major R.141.wav
DR12        -1.39 dB     -17.99 dB     Box08 LP5 – B2 Concerto For Strings And Continuo C-Major R.114.wav
DR12        -1.87 dB     -17.64 dB     Box08 LP5 – B3 Concerto For Strings And Continuo C-Minor R.119.wav
DR13        -2.04 dB     -19.57 dB     Box08 LP5 – B4 Concerto For Strings And Continuo G-Major R.149.wav
DR14        -1.26 dB     -20.83 dB     Box08 LP6 – A1 Concerto For Strings And Cembalo F-Major R.137.wav
DR13        -2.98 dB     -20.72 dB     Box08 LP6 – A2 Concerto For Strings And Cembalo H-Minor R.168.wav
DR14        -2.80 dB     -21.10 dB     Box08 LP6 – A3 Concerto For Strings And Cembalo E-Major R.132.wav
DR14        -0.99 dB     -19.93 dB     Box08 LP6 – B1 Concerto For Strings And Cembalo C-Major R.116.wav
DR14        -0.46 dB     -18.31 dB     Box08 LP6 – B2 Concerto For Strings And Cembalo G-Minor R.156.wav
DR13        -3.45 dB     -21.14 dB     Box08 LP6 – B3 Concerto For Strings And Cembalo E-Major R.131.wav
DR14        -3.01 dB     -21.07 dB     Box08 LP6 – B4 Concerto For Strings And Cembalo C-Major R.112.wav
———————————————————————————————-

Number of files:    34
Official DR value:    DR13
==============================================================================================

Ripping Info

Monitoring

 

If You hear some clicks and pops here and there, Who cares?
Id rather have a few light anomalies instead of destroying the music.
Enjoy the music, not the ticks & pops.
I tend more and more, in the last time, to de-click with an automatic setting between 0.7 and 1.2 so you can say, my rips are like half rough rips.

  • Software: iZotope RX 4 Advanced, Adobe Audition CS 5.5, Twisted Wave 1.9
  • Very light de-clicking with iZotope, significant clicks manually removing, no de-noising
  • DR-Analisys before converting to Flac
  • Converting Wave -> Flac: Twisted Wave 1.9
  • Artwork: Sony Alpha 350, Epson Perfection V750 Pro, Photoshop CS 5.5

DONATION !
If you like what i do, please consider that a little donation would be very appreciate.
I reinvest all donations in maintenance of my rig, for purchasing cleaning solutions and, most important of all, purchasing of new vinyls.

Click on the “Donate”-button. Thank you very much !

Download from FileFactory
Artwork – 1 archive

Volume 1: 10 archives
Volume 2: 7 archives
Volume 3: 12 archives
Volume 4: 9 archives

Volume 5: 12 archives
Volume 6: 10 archives
Volume 7: 8 archives

Volume 8: 12 archives

Total: 81 archives

PW: LaWally

Leave a comment ?

26 Comments.

  1. Thank you very much!

  2. Filenames above are not from Volume 8 but from 7 !

  3. Wonderful. Thank you.

  4. godIsInTheRadio

    Thanks a lot – have been patiently, cough, cough, waiting for this to surface 🙂

    A really beautiful collection, this boxset!

  5. S – C – O – R – E !!!!!
    Thank you Alf. I’m glad your down time was so brief.
    You do such good work despite Titles, etc.
    My player only understands track-numerics anyway. But thanks to J. L. for being up on stuff.

    As Disney said: Supercalifragilisticexpialidocious!!
    Bob

  6. Many thanks!

  7. Thanks!!!
    Its godlike !!!:):)

  8. come al solito un sentiti grazie.
    attendo con ansia di arrivare alla fine.
    in fondo manca poco

  9. merci marvellous

  10. Thank you

    Filename Corrections
    LP1 – B2
    from Concerto For 2 Violins, Strings And Continuo in G-Minor R.411
    to Concerto For 2 Cellos, Strings And Continuo in G-Minor R.531

    LP2 – A2
    from Concerto For Cello, Strings And Continuo in C-Minor R.434
    to Concerto For Cello, Strings And Continuo in C-Minor R.401

    LP2 – B2
    from
    LP2 – B2 Concerto For Violin, Cello, Strings And Continuo in B-Major R.388
    to
    LP2 – B2 Concerto For Violin, Cello, Strings And Continuo in B-Major R.547

    LP5 – A3
    from
    LP5 – A3 Concerto For Strings And Continuo in G-Minor R.15a
    to
    LP5 – A3 Concerto For Strings And Continuo in G-Minor R.154

  11. Brilliant post!
    Thank you 🙂

  12. Many thanks for another outstanding post.

  13. Ciao Alf,
    non ci sono le copertine nei file che hai caricato ? o per caso mi manca qualcosa.
    Fabio

  14. Grazie! ciao!
    FR

  15. Thank you very much Alf.

  16. Thank you very much, Alf. These are great recordings. Unfortunately the links 5 and 8 seem unaccessible, any one else having this problem? I’ll try again tomorrow, maybe it is temporary.

    Thank you!!!

  17. Though the praise seems small, I’ll still say ‘Thank You’ to you.

  18. Thanks for this great Boxset 🙂

Leave a Comment