Falla – The Three Cornered Hat (Ansermet, L’Orchestre De La Suisse Romande, Berganza) {ORG; US Reissue, Remaster, 2LP, 45rpm; HiRes}+ Redbook

Cover

R.I.P. SPEARO MY FRIEND, I WILL NEVER FORGET YOU!

 

This timeless gem is performed by L’Orchestre de la Suisse Romande, conducted by Ernest Ansermet.

This is a performance to be known as ‘one of the greats.’ The composition, Three-Cornered Hat was premiered by Ansermet, and with its lively rhythms, subtle narratives, dynamic development, and vivid contrast and tone-colors, this version is a masterly performance that none other appears able to exceed. The performance illustrates an ethnic taste that is rich in wild beauty in a truly vivid and dynamic way, while highlighting the lyricism of Falla’s music in a sophisticated, uncompromising manner. The solo singing by the young Berganza is also worth listening to.

Mastered by Bernie Grundman from the Original Analog Master Tapes & Pressed at RTI!
Numbered Deluxe Laminated Gatefold Jackets! Only 2500 Numbered Limited Edition Copies Worldwide!

Composer: Manuel De Falla
Orchestra:  L’Orchestre De La Suisse Romande
Conductor: Ernest Ansemet
Label: Original Recordings Group, London Records
VinylRelase Date:  2011
Number of LPs: 2
Vinyl Format : 12 Inch, 180g Pressing, 45RPM
Format: Flac
Resolution: 24/96 + 16/44 downsample
Size: 881MB / 259MB
Scans: yes
Server: FF

Tracklist

The Three-Cornered Hat – Complete Ballet

Mezzo-soprano Vocals – Teresa Berganza

A1.1 Introduction
A1.2 Part 1. Afternoon
B1.1 Part 2. The Neighbour’s Dance (Seguedillas)
B1.2 The Miller’s Dance (Farruca)
C Part 2. Conclusion
La Vida Breve
D Interlude & Dance

Companies, etc.

  • Mastered At – Bernie Grundman Mastering
  • Pressed By – Record Technology Incorporated
  • Phonographic Copyright (p) – Universal Music Enterprises
  • Recorded At – Victoria Hall, Geneva

Credits

  • Engineer [Uncredited] – Roy Wallace
  • Liner Notes – James Lyons
  • Orchestra – L’Orchestre De La Suisse Romande
  • Producer [Uncredited] – James Walker (3)
  • Remastered By – Bernie Grundman

——————————————————————————–
Analyzed: Falla / Ansermet, L’Orchestre De La Suisse Romande / The Three Cornered Hat (Complete Ballet)
——————————————————————————–

DR Peak RMS Duration Track
——————————————————————————–
DR14 -0.50 dB -19.92 dB 14:30 01-Introduction – Part I. Afternoon
DR15 -0.57 dB -22.85 dB 5:45 02-Part 2. The Neighbour’s Dance (Seguidillas) – The Miller’s Dance (Farruca)
DR15 -1.14 dB -23.21 dB 16:50 03-Part 2. Conclusion
DR13 -1.67 dB -21.47 dB 7:07 04-La Vida Breve (Interlude & Dance)
——————————————————————————–

Number of tracks: 4
Official DR value: DR15

Samplerate: 96000 Hz
Channels: 2
Bits per sample: 24
Bitrate: 2679 kbps
Codec: FLAC
==============================================

 

Equipment
——————————————————————————————————-
——————————————————————————————————-
RCM : Opera Consonance
Turntable : Thorens TD 160 mk IV in heavy custommade teakplinth. Delta Device Vinyl TT puck, Delta Device 6mm acrylic turntable plate.
Power supply : Custombuild Dr.Fuss linear motor power supply
Tonearm : Jelco SA 750D, Custommade internal wiring on KLE Innovations Pure Harmony plugs, Isokinetik asymmetric counterweight, Jelco Headshell
Cartridge : Ortofon Rondo Bronze
Preamp : Restek MRIA+( + HiFi-Tuning Supreme 3 fuse)
ADC : RME Fireface UC
ADC Power Supply: MCRU 2.5 AMP Linear Power Supply (+ Furutech IEC inlet and HiFi-Tuning Supreme 3 Fuse)
Laptop : MSI GP60 2QE Leopard,Core i5,2x250GB SSD,16GB Ram
Camera : Sony Alpha A 350
Interconnects : Supra Eff-I terminanted on KLE Innovations Pure Harmony Plugs, Wireworld Starlight USB 2.0 and 3.0.
Power Cords : DIY Powercords using Isotek Evo 3 Schuko/IEC plugs, Supra LoRad 2,5 Silver Anniversary cables in 1,5 m length
Software : izotope RX 3 Advanced for recording, Resampling, cleaning and splitting into individual tracks, Traders Little Helper for encoding to Flac on Level 5, Tagging via Foobar 2000
——————————————————————————————————-
Notes
——————————————————————————————————-
No music was harmed during the post processing. Please burn gapless to match original track layout.

Vinylrip done by spearo July 2017

——————————————————————————————————-
——————————————————————————————————-

Please consider making a donation…even the smallest donation is highly appreciated to keep the wheel running.

 

 

PW is: Mr.Pink

1 is HiRes files , 2****RB is Redbook standart  file. otherwise easily detectable on basis of the file size 🙂

My Appologies

Part 2. The Neighbour’s Dance (Seguidillas) – The Miller’s Dance (Farruca) had been accidently tagged wrong .I’ve edited that and added a new playlist cuesheet and DR report file for both the 16/44 and 24/96 version and uploaded new rar’s  If you feel uncomfortable with your old existing version please DL the fixed versions again .

download-001

24 thoughts on “Falla – The Three Cornered Hat (Ansermet, L’Orchestre De La Suisse Romande, Berganza) {ORG; US Reissue, Remaster, 2LP, 45rpm; HiRes}+ Redbook”

    1. Ah Brasil, Greetings from Germany

      I feel somehow still sorry our team beat you so heavy 2014. Scolari made the worst tactical mistakes one can immagine …it was a massacre…

      Nontheless, enjoy the rip 🙂

  1. Thank you very much, for this excellent version and for this awesome rip in HR.
    I just want to clarify to two errors that I have detected in the names of the dances of track 2:
    The Neighbor’s Dance (Seguedillas) – The Miller’s Dance (Farruda)
    The names correct, are is Seguidillas and Farruca
    I hope you take it into account, to correct them.
    Thanks for everything,
    Angel Duerto

    1. Thank you … I’ll correct it and reup the new corrected album including new DR report, cuesheet and playlist file. 🙂 Ready to DL in about 45 minutes from now on…

      Until then those who DL’d already …you are free to correct the alum tags yourself as it is a thing of minutes and pretty easy to do via mp3tag,foobar or related.

      Thanks for your comment.

      Enjoy the rip

Leave a Reply