Great Vinyl 16/44 Mono (CBS) Sibelius/Walton – Violin Concertos – Francescatti

# Composer: Jean Sibelius, William Walton
# Performer: Zino Francescatti
# Orchestra: New York Philarmonic Orchestra, Philadelphia Orchestra
# Conductor: Leonard Bernstein, Eugene Ormandy
# Vinyl (1965)
# Number of Discs: 1
# Format: Flac
# Label: CBS
# DR-Analysis: DR 14
# ASIN: not found
# Size: 162 MB
# Scan: yes
# Server: FileFactory

Analyzed folder: /44k_mono(PJ-RS) Sibelius – Violin Concerto – Francescatti
DR        Peak        RMS        Filename
DR13        -1.40 dB     -19.74 dB     A1 Sibelius Violin Concerto – Allegro Moderato.wav
DR13        -0.87 dB     -19.82 dB     A2 Sibelius Violin Concerto – Adagio Di Molto.wav
DR12        -0.69 dB     -18.33 dB     A3 Sibelius Violin Concerto – Allegro Ma Non Tanto.wav
DR15        -1.09 dB     -20.62 dB     B1 Walton Violin Concerto – Andante Tranquillo.wav
DR16        -0.62 dB     -21.47 dB     B2 Walton Violin Concerto – Presto Capriccioso Alla Napolitana.wav
DR16        -0.75 dB     -21.28 dB     B3 Walton Violin Concerto – Vivace.wav
Number of files:    6
Official DR value:    DR14


Ripping Infos

  • RCM: Okki Nokki
  • TT: Clearaudio Champion Level II
  • System: Limited Edition Denon DL 103 SA
  • NEW ! Phono stage: Pro-Ject Phono Box II
  • ADC/DAC: RME Fireface UC
  • Pre Amp: Unison Research Unico Pre (Tube)
  • Finals: Opera Consonance 9.9 Mono (Tube)
  • Speakers: Dali Helikon 400
  • Connections: MIT Terminator, Audioquest Emerald, Audioquest Quartz
  • Software: iZotope RX Advanced v2.02, Adobe Audition CS 5.5, Twisted Wave 1.9
  • Light de-Clicking with ClickRepair, significant clicks manually removing, no De-Noising

If You hear some clicks and pops here and there, Who cares?
Id rather have a few light anomalies instead of destroying the music. Enjoy the music, not the ticks & pops.

  • DR-Analisys before converting to Flac
  • Converting Wave -> Flac: Twisted Wave 1.9
  • Artwork: Sony Alpha 350, Epson Perfection V750 Pro, Photoshop CS 5.5

If you like what i do, please consider that a little donation would be very appreciate. I reinvest all donations in maintenance of my rig, for purchasing cleaning solutions and, most important of all, purchasing of new vinyls.
Click on the “Donate”-button. Thank you very much !

Download from FileFactory

PW: LaWally

10 thoughts on “Great Vinyl 16/44 Mono (CBS) Sibelius/Walton – Violin Concertos – Francescatti

  1. I love Francescatti (and above all his recordings I know, perhaps his Beethoven Violin Concerto with Bruno Walter and New York Philharmonic). “The Bel Canto of violin” !

  2. By the way, which curve of your new phono box did you use ? Regular Riaa or Decca? I’m sure you know this record was originally recorded in stereo (I have the cd). Anyway, thanks for this gem!

    • Hi Mister J… 😉
      this my record is a mono one, you can see it on the pic of the back cover, right above. So it doesn’t make sense to have it in Stereo.
      I use the RIAA curve…the Decca curve is only for old Decca mono recordings.

Leave a Reply