HD-Vinyl 24/192 (Decca) Mozart – Piano Sonatas No. 4 & 8 – Beethoven – 7 Bagatelles (De Larrocha)


Many thanks to our generous friend Jean-Luc for the vinyl
Although she was best known for her performances of Spanish music, the great pianist Alicia de Larrocha (1923 – 2009) also was a renowned performer of Mozart and Beethoven. This is a fine recording to hear in itself for those wanting this particular combination of Mozart and Beethoven piano works. The recording also is valuable for admirers of Alicia de Larrocha, and it helps to expand and preserve her legacy.

Composer: Wolfgang Amadeus Mozart, Ludwig van Beethoven
Performer: Alicia De Larrocha
Vinyl 1980
Number of Discs: 1
Format: FLAC
Label: Decca
DR-Analysis: DR 13
Size: 1.91 GB
Scan: yes
Server: FF


Tracklist

  Piano Sonata In E Flat, K.282

Composed By – Mozart

 
A1 I. Adagio 4:48
A2 I. Menuet I&II, III. Allegro 7:32
  Piano Sonata In A Minor, K.310

Composed By – Mozart

 
A3 I. Allegro maestoso 5:59
A4 II. Andante cantabile con espressione 9:04
A5 III. Presto 3:36
  Bagatelles, Op.33

Composed By – Beethoven

 
B1 No.1 in E flat: Andante grazioso, quasi allegretto 3:50
B2 No. 2 in C: Scherzo 2:07
B3 No. 3 in F: Allegretto 2:01
B4 No. 4 in A: Andante 3:33
B5 No. 5 in C: Allegro ma non troppo 3:06
B6 No. 6 in D: Allegretto quasi Andante 2:10
B7 No. 7 in A flat: Presto 2:10

 

———————————————————————————————-
Analyzed folder: /192k Mozart, Piano Sonatas 4, 8 – Beethoven, 7 Bagatelles – De Larrocha
———————————————————————————————-
DR Peak RMS Filename
———————————————————————————————-

DR13 -4.09 dB -21.48 dB A1 WAM – Piano Sonata In E Flat, K.282 – I. Adagio.aif
DR14 -0.65 dB -19.14 dB A2 WAM – Piano Sonata In E Flat, K.282 – I. Menuet 1-2, III. Allegro.aif
DR13 -1.14 dB -18.31 dB A3 WAM – Piano Sonata In A Minor, K.310 – I. Allegro maestoso.aif
DR14 -2.83 dB -22.36 dB A4 WAM – Piano Sonata In A Minor, K.310 – II. Andante cantabile con espressione.aif
DR12 -2.05 dB -18.17 dB A5 WAM – Piano Sonata In A Minor, K.310 – III. Presto.aif
DR15 -1.88 dB -22.54 dB B1 LvB – Bagatelles, Op.33 – No.1 in E flat- Andante grazioso, quasi allegretto.aif
DR13 -0.49 dB -17.97 dB B2 LvB – Bagatelles, Op.33 – No. 2 in C- Scherzo.aif
DR12 -2.25 dB -20.44 dB B3 LvB – Bagatelles, Op.33 – No. 3 in F- Allegretto.aif
DR13 -6.58 dB -24.66 dB B4 LvB – Bagatelles, Op.33 – No. 4 in A- Andante.aif
DR14 -1.07 dB -18.22 dB B5 LvB – Bagatelles, Op.33 – No. 5 in C- Allegro ma non troppo.aif
DR13 -5.36 dB -23.88 dB B6 LvB – Bagatelles, Op.33 – No. 6 in D- Allegretto quasi Andante.aif
DR14 -1.64 dB -20.94 dB B7 LvB – Bagatelles, Op.33 – No. 7 in A flat- Presto.aif
———————————————————————————————-

Number of files: 12
Official DR value: DR13

==============================================================================================

 

 

Ripping Info

Monitoring

A few words about the way i’ve been cleaning vinyl records and post-processing rips, since summer 2017: After washing and recording the vinyl, I use a kind of mixed cleaning of the rip, which consists of mostly manual rather than automatic de-clicking, (the latter only on unimportant passages, such as end of the groove, beginning and end of the songs, applause, speaking). I often leave the rips almost rough, de-clicking only the silences between the tracks. Never de-noising or/and EQ, as unfortunately some do. I prefer to hear a bit of quiet noises of the clean groove, that contain something of the music, rather than generate clinically clean files that may, eventually, sound a bit dead. If you do not agree, do not download my rips and buy instead digital files or CDs.
When I listen to music I “don’t hear” any noise: I enjoy the music 😀
I do not make rips for headphones!

  • Software: iZotope RX 5 Advanced, Adobe Audition CS 5.5, Twisted Wave 1.18
  • Very careful de-clicking with iZotope, significant clicks manually removed, never de-noising
  • DR-Analisys
  • Wave 32/192(32/384) —> Flac 24/96 & 24/192: Twisted Wave 1.18
  • Artwork: Sony Alpha 350, Epson Perfection V750 Pro, Photoshop CS 5.5

 

 

9 thoughts on “HD-Vinyl 24/192 (Decca) Mozart – Piano Sonatas No. 4 & 8 – Beethoven – 7 Bagatelles (De Larrocha)

Leave a Reply