HD-Vinyl 24/192 (Decca) WAM-JSB – Sonata K331-Chaconne (De Larrocha)


Many thanks to our generous friend Jean-Luc for this gem
Aside from Ms. De Larrocha’s eminently superior abilities on the piano, this album is a beautiful testament to her extraordinary gifts. We miss you Alicia, thankfully, you are always here for your most devoted followers. There are but a handful of artists who can claim iconoclastic status as a performer and master of their instruments, Alicia is one. Everything she does is done musically, so she brings out the character of the piece rather than grandstanding.

Composer: Wolfgang Amadeus Mozart, Johann Sebastian Bach, Ferruccio Busoni
Performer: Alicia De Larrocha
Vinyl 1975
Number of Discs: 1
Format: FLAC
Label: Decca
DR-Analysis: DR 13
Size: 1.99 GB
Scan: yes
Server: FF


Tracklist

A1 Mozart, Alicia De Larrocha Rondo In D Major, K.485  
  Mozart, Alicia De Larrocha Sonata In A Major, K.331  
A2 1st Mvt. Andante Grazioso  
A3 2nd Mvt. Menuetto E Trio  
A4 3rd Mvt. Rondo Alla Turca  
B1 Mozart, Alicia De Larrocha Fantasia In C Minor, K.475  
B2 Bach / Busoni, Alicia De Larrocha Chaconne In D Minor

———————————————————————————————-
Analyzed folder: /Volumes/Boxset CL-OP/PUBLISHING CLASSICAL/ jean-luc/192kWAM-JSB_SonK331-Cha_AliDel/192k WAM-JSB – Sonata K331-Chaconne – Alicia Delarrocha
———————————————————————————————-
DR Peak RMS Filename
———————————————————————————————-

DR13 -4.77 dB -23.17 dB A1 Mozart – Rondo D-Major K.485.aif
DR13 -1.57 dB -23.55 dB A2 Mozart – Sonata A-Major K331 – Andante Grazioso.aif
DR14 -5.37 dB -23.23 dB A3 Mozart – Sonata A-Major K331 – Menuetto e Trio.aif
DR12 -0.83 dB -17.61 dB A4 Mozart – Sonata A-Major K331 – Rondo Alla Turca.aif
DR15 -1.04 dB -21.34 dB B1 Mozart – Fantasia C-Minor K475.aif
DR13 -0.48 dB -17.74 dB B2 JSB-Busoni – Chaconne D-Minor.aif
———————————————————————————————-

Number of files: 6
Official DR value: DR13

==============================================================================================

 

Ripping Info

Monitoring

A few words about the way i’ve been cleaning vinyl records and post-processing rips, since summer 2017: After washing and recording the vinyl, I use a kind of mixed cleaning of the rip, which consists of mostly manual rather than automatic de-clicking, (the latter only on unimportant passages, such as end of the groove, beginning and end of the songs, applause, speaking). I often leave the rips almost rough, de-clicking only the silences between the tracks. Never de-noising or/and EQ, as unfortunately some do. I prefer to hear a bit of quiet noises of the clean groove, that contain something of the music, rather than generate clinically clean files that may, eventually, sound a bit dead. If you do not agree, do not download my rips and buy instead digital files or CDs.
When I listen to music I “don’t hear” any noise: I enjoy the music 😀
I do not make rips for headphones!

  • Software: iZotope RX 5 Advanced, Adobe Audition CS 5.5, Twisted Wave 1.18
  • Very careful de-clicking with iZotope, significant clicks manually removed, never de-noising
  • DR-Analisys
  • Wave 32/192(32/384) —> Flac 24/96 & 24/192: Twisted Wave 1.18
  • Artwork: Sony Alpha 350, Epson Perfection V750 Pro, Photoshop CS 5.5

 

 

11 thoughts on “HD-Vinyl 24/192 (Decca) WAM-JSB – Sonata K331-Chaconne (De Larrocha)”

Leave a Reply