HD-Vinyl 24/192 (DGG) Ludwig van Beethoven – Symphony No. 3 »Eroica« (Böhm)


Many thanks to a music lover from China for this classic
A great performance. I’ve gone through a number of recordings of Beethoven’s 3rd – on vinyl and CD. This is one of the best; although recorded in 1962, the sound is clear. Bohm’s tempos are right on; the orchestra is tight; the soloists sound pumped and the choir soars. The finale makes you jump! They really nailed it! You never feel like you’re a passenger on a top-heavy ship in roiling seas – which is the feeling I’ve experienced listening to some other emotionally unbridled performances.

Composer: Ludwig van Beethoven
Orchestra: Berlin Philharmonic Orchestra
Conductor: Karl Böhm
Vinyl 1962
Number of Discs: 1
Format: FLAC
Label: DGG
DR-Analysis: DR 13
Size: 1.8 GB
Scan: yes
Server: FF


Tracklist

  Symphonie Nr. 3 Es-dur Op. 55 »Eroica«  
A1 1. Satz: Allegro Con Brio 14:40
A2 2. Satz: Marcia Funebre: Adagio Assai 14:25
B1 3. Satz: Allegro Vivace 5:59
B2 4. Satz: Finale: Allegro Molto 12:24

 

———————————————————————————————-
Analyzed folder: /192k LvB – Symphony No. 3 ‘Eroica’ – Boehm
———————————————————————————————-
DR Peak RMS Filename
———————————————————————————————-

DR12 -0.47 dB -18.71 dB A1 – Symphonie Nr. 3. Es-Dur Op. 55 ‘Eroica’ – Allegro Con Brio.aif
DR14 -2.18 dB -23.79 dB A2 – Symphonie Nr. 3. Es-Dur Op. 55 ‘Eroica’ – Marcia Funebre. Adagio Assai.aif
DR13 -0.59 dB -20.42 dB B1 – Symphonie Nr. 3. Es-Dur Op. 55 ‘Eroica’ – Scherzo. Allegro Vivace.aif
DR12 -1.22 dB -18.94 dB B2 – Symphonie Nr. 3. Es-Dur Op. 55 ‘Eroica’ – Finale. Allegro Molto – Poco Andante – Presto.aif
———————————————————————————————-

Number of files: 4
Official DR value: DR13

==============================================================================================

 

Ripping Info

Monitoring

A few words about the way i’ve been cleaning vinyl records and post-processing rips, since summer 2017: After washing and recording the vinyl, I use a kind of mixed cleaning of the rip, which consists of mostly manual rather than automatic de-clicking, (the latter only on unimportant passages, such as end of the groove, beginning and end of the songs, applause, speaking). I often leave the rips almost rough, de-clicking only the silences between the tracks. Never de-noising or/and EQ, as unfortunately some do. I prefer to hear a bit of quiet noises of the clean groove, that contain something of the music, rather than generate clinically clean files that may, eventually, sound a bit dead. If you do not agree, do not download my rips and buy instead digital files or CDs.
When I listen to music I “don’t hear” any noise: I enjoy the music 😀
I do not make rips for headphones!

  • Software: iZotope RX 5 Advanced, Adobe Audition CS 5.5, Twisted Wave 1.18
  • Very careful de-clicking with iZotope, significant clicks manually removed, never de-noising
  • DR-Analisys
  • Wave 32/192(32/384) —> Flac 24/96 & 24/192: Twisted Wave 1.18
  • Artwork: Sony Alpha 350, Epson Perfection V750 Pro, Photoshop CS 5.5

 

 

15 thoughts on “HD-Vinyl 24/192 (DGG) Ludwig van Beethoven – Symphony No. 3 »Eroica« (Böhm)

  1. Альф и любитель музыки из Китая – огромное спасибо за такую интересную запись!
    3, не 9.

Leave a Reply