HD-Vinyl 24/192 (DGG) Nicoló Paganini – Violin Concerto No. 6 (Accardo/Dutoit)

The entire DG Paganini Accardo – Dutoit/LSO is a winner in all regards. The analog sound has the most extraordinary bass capture. Tonally accurate, clear, robust, natural – no need to fret over a digital master. Accardo never fails to impress with violin virtuosity and fingering skill. Never a jerky bow change or under-phrased musical statements, always a shimmering tone, steady, rich, well-controlled. The technical demands Paganini wrote for the violinist of intonation and bowing techniques are handled with ease by the “old-school” classically trained Accardo. Dutoit and the London Phil in top form. This disc or the entire set or collected separately belong in anyone’s collection lacking these titles.

Composer: Nicolò Paganini
Performer: Salvatore Accardo
Orchestra: London Philharmonic Orchestra
Conductor: Charles Dutoit
Vinyl 1974
Number of discs: 1
Format: Flac
Label: DGG
DR-Analysis: DR 17
Size: 1.53 GB
Scan: yes
Server: FF

Analyzed Folder: /192k Paganini – Violin Concerto No. 6 – Accardo_dr.txt
DR Peak RMS Filename
DR15 -0.14 dB -21.40 dB A Konzert Fuer Violin Und Orchester No. 6 E-Moll Op. Post. – Risoluto.flac
DR18 -0.19 dB -25.82 dB B1 Konzert Fuer Violin Und Orchester No. 6 E-Moll Op. Post. – Adagio.flac
DR16 -0.43 dB -22.40 dB B2 Konzert Fuer Violin Und Orchester No. 6 E-Moll Op. Post. – Rondo, Ossia Polonese.flac
Number of Files: 3
Official DR Value: DR17


  • Conductor – Charles Dutoit
  • Cover – Wandrey’s Studio
  • Engineer [Recording] – Klaus Scheibe
  • Orchestra – London Philharmonic Orchestra
  • Photography By [Salvatore Accardo] – Paolo Gianbarberis
  • Producer, Recording Supervisor – Rainer Brock
  • Sleeve Notes [Ⓒ 1974] – Edward Neill
  • Violin – Salvatore Accardo

Ripping Info


A few words about the way i’ve been cleaning vinyl records and post-processing rips, since summer 2017: After washing and recording the vinyl, I use a kind of mixed cleaning of the rip, which consists of mostly manual rather than automatic de-clicking, (the latter only on unimportant passages, such as end of the groove, beginning and end of the songs, applause, speaking). I often leave the rips almost rough, de-clicking only the silences between the tracks. Never de-noising or/and EQ, as unfortunately some do. I prefer to hear a bit of quiet noises of the clean groove, that contain something of the music, rather than generate clinically clean files that may, eventually, sound a bit dead. If you do not agree, do not download my rips and buy instead digital files or CDs.
When I listen to music I “don’t hear” any noise: I enjoy the music 😀
I do not make rips for headphones!

  • Software: iZotope RX 5 Advanced, Adobe Audition CS 5.5, Twisted Wave 1.18
  • Very careful de-clicking with iZotope, significant clicks manually removed, never de-noising
  • DR-Analisys
  • Wave 32/192(32/384) —> Flac 24/96 & 24/192: Twisted Wave 1.18
  • Artwork: Sony Alpha 350, Epson Perfection V750 Pro, Photoshop CS 5.5



8 thoughts on “HD-Vinyl 24/192 (DGG) Nicoló Paganini – Violin Concerto No. 6 (Accardo/Dutoit)

Leave a Reply