HD-Vinyl 24/192 (DGG) Wolfgang Amadeus Mozart – Violin Concerti No. 4 & 5 (Schneiderhan)

front-small-boxset
Wolfang Schneiderhan is -undeniably – one of the master violinists in Mozart. His intonation is extremely evocative, his phrasing has that naïf touch so lovable in these works. Mozart doesn’t demand fierceness but delicacy and slender elegance and finesse. The Fourth Concerto is one the most relevant examples of superb musicality and austere sobriety.

Composer: Wolfgang Amadeus Mozart
Performer: Wolfgang Schneiderhan
Orchestra:  Berlin Philarmonic Orchestra, Symphony Orchestra of the NDR
Conductor: Hans Schmidt-Hisserstedt
Vinyl 1961/1980?
Number of Discs: 1
Format: Flac
Label: DGG
DR-Analysis: DR 13
Size: 1.93 GB
Scan: yes
Server: FileFactory

 

Tracklist

  Konzert Für Violine Und Orchester Nr. 4 D-dur Kv 218  
A1 1. Satz: Allegro 8:50
A2 2. Satz: Andante Cantabile 6:07
A3 3. Satz: Rondeau: Andante Grazioso – Allegro Ma Non Troppo 7:14
  Konzert Für Violine Und Orchester Nr. 5 A-dur Kv 219  
B1 1. Satz: Allegro Aperto 9:22
B2 2. Satz: Adagio 9:18
B3 3. Satz: Rondeau: Tempo Di Menuetto – Allegro 8:48
 

———————————————————————————————-
Analyzed folder: /192k WAM – Violin Concerti No. 4, No. 5 – Schneiderhan
———————————————————————————————-
DR        Peak        RMS        Filename
———————————————————————————————-
DR13        -1.03 dB     -19.86 dB     A1 Konzert Fuer Violine Und Orchester Nr. 4 D-dur Kv 218 – 1. Satz- Allegro.aif
DR12        -4.10 dB     -20.59 dB     A2 Konzert Fuer Violine Und Orchester Nr. 4 D-dur Kv 218 – 2. Satz- Andante Cantabile.aif
DR14        -3.03 dB     -22.14 dB     A3 Konzert Fuer Violine Und Orchester Nr. 4 D-dur Kv 218 – 3. Satz- Rondeau- Andante Grazioso – Allegro Ma Non Troppo.aif
DR14        -1.04 dB     -20.96 dB     B1 Konzert Fuer Violine Und Orchester Nr. 5 A-dur Kv 219 – 1. Satz- Allegro Aperto.aif
DR14        -4.29 dB     -23.38 dB     B2 Konzert Fuer Violine Und Orchester Nr. 5 A-dur Kv 219 – 2. Satz- Adagio.aif
DR13        -0.83 dB     -19.28 dB     B3 Konzert Fuer Violine Und Orchester Nr. 5 A-dur Kv 219 – 3. Satz- Rondeau- Tempo Di Menuetto – Allegro.aif
———————————————————————————————-
Number of files:    6
Official DR value:    DR13
==============================================================================================

 

Ripping Info

Monitoring

  • Software: iZotope RX 4 Advanced, Adobe Audition CS 5.5, Twisted Wave 1.9
  • Super light de-clicking with iZotope, significant clicks manually removing, no de-noising
  • DR-Analisys before converting to Flac
  • Converting Wave -> Flac: Twisted Wave 1.9
  • Artwork: Sony Alpha 350, Epson Perfection V750 Pro, Photoshop CS 5.5

DONATION !
If you like what i do, please consider that a little donation would be very appreciated.
I reinvest all donations in maintenance of my rig, for purchasing cleaning solutions and, most important of all, purchasing of new vinyls.
Click on the “Donate”-button. Thank you very much !

DL from FileFactory

PW: LaWally

 

9 thoughts on “HD-Vinyl 24/192 (DGG) Wolfgang Amadeus Mozart – Violin Concerti No. 4 & 5 (Schneiderhan)”

  1. Schneiderhan and Mozart, an excellent combination! Thanks Alf, the recording and transfer is First Class 🙂
    I think there is another Schneiderhan in the box, but I forget which one 😉

Leave a Reply