HD-Vinyl 24/192 (EMI) Works by Larsson, Uttini, Roman (Stockholm Ph. Or./Ulf Björlin)

Many many thanks to our friend Dagote for this stunning rarity

The swedish composer Lars-Erik Vilner Larsson was born in Åkarp in 1908, the son of a factory worker and a nurse. He studied with Ellberg at the Stockholm Conservatory (1925–1929) and with Alban Berg and Fritz Reuter in Vienna and Leipzig (1929–1930), then worked for Swedish radio and taught at the Stockholm Conservatory (1947–1959) and Uppsala University where he held the position as Director musices (1961–1966). His style as a composer is eclectic, ranging from the late Romantic to techniques derived from Arnold Schoenberg’s twelve-note system, but original in method. He was the first Swede to write serial music (1932). Yet other works of that period are post-Sibelian or neo-classical, and his output generally is characterized by variety of style. He wrote for the theatre, cinema and broadcasting, in addition to the more traditional forms of symphony, concerto, chamber and vocal music. He died of diabetes complications in Helsingborg in 1986, aged 78.

Composer: Lars-Erik Larsson, Francesco Uttini, Johan Helmich Roman
Performer: Per-Olof GillBlad
Orchestra: Stockholm Philharmonic Orchestra
Conductor: Ulf Björlin
Vinyl 1968
Number of Discs: 1
Format: Flac
Label: EMI
DR-Analysis: DR 14
Size: 1.96 GB
Scan: yes
Server: FileFactory

Francesco Antonio Baldassare Uttini (1723 Bologna – 25 October 1795) was an Italian composer and conductor who was active mostly in Sweden. He is best remembered today as a composer of operas in both the Italian and Swedish languages and for his five symphonies. He provided the music for the first Swedish grand opera, Thetis och Pelée, which was commissioned by Gustavus III in 1772 and was successfully performed the following year. He was married first to the opera singer Rosa Scarlatti, and then to the opera singer Sofia Liljegren. He was the father of the ballet dancer Carlo and double bass player Adolpho Ludovico Uttini.

Johan Helmich Roman (26 October 1694 – 20 November 1758) was a Swedish Baroque composer. He has been called “the father of Swedish music” or “the Swedish Handel.” He was the leader of Swedish Opera through most of Swedish Opera’s Age of Liberty. Roman was born in Stockholm into the family of Johan Roman, a member of the Swedish royal chapel. The family name “Roman” may be derived from the Finnish place name Rauma, since Johan’s ancestors lived in Finland. The boy probably received his first music lessons from his father. He joined the royal chapel in 1711 as violinist and oboist. Around 1715 the King granted Roman permission to study abroad, and the young composer spent some six years in London. He almost certainly studied under Johann Christoph Pepusch, met Francesco Geminiani, Giovanni Bononcini, and, most importantly, George Frideric Handel, whose music made a lasting impression on Roman.
—> MORE…

 Analyzed Folder: /192k Orchestral Works by Larsson, Uttini, Roman
DR         Peak       RMS        Filename                      
DR13       -0.76 dB   -20.13 dB  A1 Larsson, Pastoral Suite Op. 19 – Ouverture.flac
DR12       -0.36 dB   -20.15 dB  A2 Larsson, Pastoral Suite Op. 19 – Romance.flac
DR15       -0.19 dB   -20.11 dB  A3 Larsson, Pastoral Suite Op. 19 – Allegro.flac
DR14       -1.96 dB   -21.35 dB  A4 Larsson, Lyric Fantasy Op. 58.flac
DR14       -0.16 dB   -18.05 dB  B1 Uttini, Kineserna (Ballet Suite).flac
DR15       -0.36 dB   -20.05 dB  B2 Roman, Concerto For Oboe And Strings – Allegro.flac
DR13       -5.74 dB   -23.10 dB  B3 Roman, Concerto For Oboe And Strings – Andante.flac
DR14       -2.50 dB   -20.00 dB  B4 Roman, Concerto For Oboe And Strings – Allegro.flac
 Number of Files: 8
 Official DR Value: DR14

Ripping Info


  • Software: iZotope RX 5 Advanced, Adobe Audition CS 5.5, Twisted Wave 1.9
  • Super light de-clicking with iZotope, significant clicks manually removed, never de-noising
  • DR-Analisys before converting to Flac
  • Converting Wave -> Flac: Twisted Wave 1.9
  • Artwork: Sony Alpha 350, Epson Perfection V750 Pro, Photoshop CS 5.5

If you like what i do, please consider that a little donation would be very appreciated.
I reinvest all donations in maintenance of my rig, for purchasing cleaning solutions and, most important of all, purchasing of new vinyls.
Click on the “Donate”-button. Thank you very much !

DL from FileFactory

PW: FloriaTosca


6 thoughts on “HD-Vinyl 24/192 (EMI) Works by Larsson, Uttini, Roman (Stockholm Ph. Or./Ulf Björlin)

Leave a Reply