HD-Vinyl 24/192 (London/Decca) WAM-JSB – Sonatas K332-545-576-Two Cantatas (De Larrocha)


Many thanks to our generous friend Jean-Luc for this gem
Other pianists may be able to play the notes as well as she, but who else invests this music with the unmistakable style which is so instantly recognizable as being De Larrocha after hearing her play only a few bars? Is very easy to like De Larrocha; everything she does is done musically, so she brings out the character of the piece rather than grandstanding.

Composer: Wolfgang Amadeus Mozart, Johann Sebastian Bach
Performer: Alicia De Larrocha
Vinyl 1978
Number of Discs: 1
Format: FLAC
Label: Decca/London
DR-Analysis: DR 13
Size: 1.97 GB
Scan: yes
Server: FF


Tracklist

A1 Beloved Jesu, We Are Here 3:25
A2 Sanctify Us By Thy Goodness 3:06
A3 Sonata In F Major-1st Movt. 7:28
A4 Sonata In F Major-2nd Movt. 4:33
A5 Sonata In F Major-3rd Movt. 6:42
B1 Sonata In C Major-1st Movt. 3:06
B2 Sonata In C Major-2nd Movt. 5:47
B3 Sonata In C Major-3rd Movt. 1:20
B4 Sonata In D Major-1st Movt. 4:52
B5 Sonata In D Major-2nd Movt. 5:51
B6 Sonata In D Major-3rd Movt. 4:06

———————————————————————————————-
Analyzed folder: /192k WAM-JSB – Sonata K332-545-4576-Two Cantatas – Alicia Delarrocha
———————————————————————————————-
DR Peak RMS Filename
———————————————————————————————-

DR11 -8.20 dB -25.42 dB A1 JSB – Beloved Jesu, We Are Here.aif
DR14 -0.89 dB -20.68 dB A2 JSB – Sanctify Us By Thy Goodness.aif
DR15 -0.88 dB -20.40 dB A3 WAM – Sonata In F Major K332-1st Movt. Allegro.aif
DR14 -7.13 dB -25.40 dB A4 WAM – Sonata In F Major K332-2nd Movt. Adagio.aif
DR14 -1.53 dB -19.42 dB A5 WAM – Sonata In F Major K332-3rd Movt. Allegro Assai.aif
DR13 -1.13 dB -17.70 dB B1 WAM – Sonata In C Major K454-1st Movt. Allegro.aif
DR13 -4.45 dB -22.13 dB B2 WAM – Sonata In C Major K454-2nd Movt. Andante.aif
DR12 -1.03 dB -17.95 dB B3 WAM – Sonata In C Major K454-3rd Movt. Rondo-Allegretto.aif
DR13 -1.41 dB -17.89 dB B4 WAM – Sonata In D Major KV576-1st Movt. Allegro.aif
DR13 -5.36 dB -22.79 dB B5 WAM – Sonata In D Major KV576-2nd Movt. Adagio.aif
DR13 -0.99 dB -18.58 dB B6 WAM – Sonata In D Major KV576-3rd Movt. Allegretto.aif
———————————————————————————————-

Number of files: 11
Official DR value: DR13

==============================================================================================

 

Ripping Info

Monitoring

A few words about the way i’ve been cleaning vinyl records and post-processing rips, since summer 2017: After washing and recording the vinyl, I use a kind of mixed cleaning of the rip, which consists of mostly manual rather than automatic de-clicking, (the latter only on unimportant passages, such as end of the groove, beginning and end of the songs, applause, speaking). I often leave the rips almost rough, de-clicking only the silences between the tracks. Never de-noising or/and EQ, as unfortunately some do. I prefer to hear a bit of quiet noises of the clean groove, that contain something of the music, rather than generate clinically clean files that may, eventually, sound a bit dead. If you do not agree, do not download my rips and buy instead digital files or CDs.
When I listen to music I “don’t hear” any noise: I enjoy the music 😀
I do not make rips for headphones!

  • Software: iZotope RX 5 Advanced, Adobe Audition CS 5.5, Twisted Wave 1.18
  • Very careful de-clicking with iZotope, significant clicks manually removed, never de-noising
  • DR-Analisys
  • Wave 32/192(32/384) —> Flac 24/96 & 24/192: Twisted Wave 1.18
  • Artwork: Sony Alpha 350, Epson Perfection V750 Pro, Photoshop CS 5.5

 

 

10 thoughts on “HD-Vinyl 24/192 (London/Decca) WAM-JSB – Sonatas K332-545-576-Two Cantatas (De Larrocha)”

Leave a Reply