HD-Vinyl 24/192 (Philips) Johann Sebastian Bach – 3 Sonatas And 3 Partitas For Violin Solo (Kremer)


Many thanks to Jean-Luc for the wonderful boxset
That Kremer is one of the greatest violinist of our time is no question. These 1980 recordings demonstrate an understanding of Bach’s aesthetic reaching far beyond that of most of his virtuoso colleagues (Milstein, Shumsky, Perlman, Martzy & Szeryng included). Kremer hits exactly at the intersection between skill, passion, intellect and soul–the essence of Bach. His interpretation of the ubiquitous Ciaccona in particular is a miracle of music-making; I cannot tire of its overwhelming incandescence. T
his music is Bach’s pure genius.

Composer: Johann Sebastian Bach
Performer: Gidon Kremer

Vinyl 1980
Number of Discs: 3
Format: FLAC
Label: Philips
DR-Analysis: DR 13
Size: 4.99 GB
Scan: yes
Server: FF

Tracklist

  Sonata No. 1 In G Minor, BWV 1001
A1 Adagio 4:18
A2 Fuga (Allegro) 4:22
A3 Siciliana 3:00
A4 Presto 3:03
  Partita No. 1 In B Minor, BWV 1002
B1 Allemanda – Double 7:34
B2 Corrente – Double (Presto) 6:21
B3 Sarabande – Double 5:48
B4 Tempo Di Borea – Double 6:05
  Sonata No. 2 In A Minor, BWV 1003
C1 Grave 4:27
C2 Fuga 7:01
C3 Andante 5:08
C4 Allegro 4:48
  Partita No. 2 In D Minor, BWV 1004
D1 Allemanda 3:48
D2 Corrente 2:19
D3 Sarabanda 3:34
D4 Giga 3:45
D5 Ciaccona 12:48
  Sonata No. 3 In C, BWV 1005
E1 Adagio 4:00
E2 Fuga 8:36
E3 Largo 2:10
E4 Allegro Assai 4:30
  Partita No. 3 In E, BWV 1006
F1 Preludio 3:12
F2 Loure 3:28
F3 Gavotte En Rondeau 2:42
F4 Menuet I-ll 3:52
F5 Bourrée 1:13
F6 Gigue 1:40

 

———————————————————————————————-
Analyzed folder: /192k JSB – 3 Sonatas And 3 Partitas For Violin Solo – Kremer
———————————————————————————————-
DR Peak RMS Filename
———————————————————————————————-

DR14 -3.39 dB -21.81 dB A1 Sonata No. 1 In G Minor, BWV 1001 – Adagio.aif
DR13 -0.95 dB -17.71 dB A2 Sonata No. 1 In G Minor, BWV 1001 – Fuga (Allegro).aif
DR12 -7.01 dB -23.15 dB A3 Sonata No. 1 In G Minor, BWV 1001 – Siciliana.aif
DR14 -2.46 dB -18.68 dB A4 Sonata No. 1 In G Minor, BWV 1001 – Presto.aif
DR14 -2.44 dB -20.23 dB B1 Partita No. 1 In B Minor, BWV 1002 – Allemanda – Double.aif
DR13 -2.84 dB -18.24 dB B2 Partita No. 1 In B Minor, BWV 1002 – Corrente – Double (Presto).aif
DR13 -3.22 dB -20.54 dB B3 Partita No. 1 In B Minor, BWV 1002 – Sarabande – Double.aif
DR13 -0.73 dB -16.93 dB B4 Partita No. 1 In B Minor, BWV 1002 – Tempo Di Borea – Double.aif
DR12 -4.16 dB -20.13 dB C1 Sonata No. 2 In A Minor, BWV 1003 – Grave.aif
DR11 -1.10 dB -15.30 dB C2 Sonata No. 2 In A Minor, BWV 1003 – Fuga.aif
DR12 -4.86 dB -20.70 dB C3 Sonata No. 2 In A Minor, BWV 1003 – Andante.aif
DR13 -2.66 dB -18.84 dB C4 Sonata No. 2 In A Minor, BWV 1003 – Allegro.aif
DR11 -4.26 dB -18.96 dB D1 Partita No. 2 In D Minor, BWV 1004 – Allemanda.aif
DR14 -2.29 dB -20.35 dB D2 Partita No. 2 In D Minor, BWV 1004 – Corrente.aif
DR13 -3.02 dB -20.67 dB D3 Partita No. 2 In D Minor, BWV 1004 – Sarabanda.aif
DR14 -3.80 dB -21.38 dB D4 Partita No. 2 In D Minor, BWV 1004 – Giga.aif
DR13 -1.05 dB -18.11 dB D5 Partita No. 2 In D Minor, BWV 1004 – Ciaccona.aif
DR13 -2.25 dB -19.27 dB E1 Sonata No. 3 In C, BWV 1005 – Adagio.aif
DR12 -0.67 dB -15.74 dB E2 Sonata No. 3 In C, BWV 1005 – Fuga.aif
DR12 -4.54 dB -21.25 dB E3 Sonata No. 3 In C, BWV 1005 – Largo.aif
DR14 -3.47 dB -20.17 dB E4 Sonata No. 3 In C, BWV 1005 – Allegro Assai.aif
DR13 -2.90 dB -18.77 dB F1 Partita No. 3 In E, BWV 1006 – Preludio.aif
DR12 -3.23 dB -20.39 dB F2 Partita No. 3 In E, BWV 1006 – Loure.aif
DR14 -0.78 dB -19.09 dB F3 Partita No. 3 In E, BWV 1006 – Gavotte En Rondeau.aif
DR14 -1.44 dB -19.14 dB F4 Partita No. 3 In E, BWV 1006 – Menuet I-ll.aif
DR13 -1.67 dB -17.88 dB F5 Partita No. 3 In E, BWV 1006 – Bourree.aif
DR13 -3.78 dB -19.65 dB F6 Partita No. 3 In E, BWV 1006 – Gigue.aif
———————————————————————————————-

Number of files: 27
Official DR value: DR13

==============================================================================================

 

 

Ripping Info

Monitoring

A few words about the way i’ve been cleaning vinyl records and post-processing rips, since summer 2017: After washing and recording the vinyl, I use a kind of mixed cleaning of the rip, which consists of mostly manual rather than automatic de-clicking, (the latter only on unimportant passages, such as end of the groove, beginning and end of the songs, applause, speaking). I often leave the rips almost rough, de-clicking only the silences between the tracks. Never de-noising or/and EQ, as unfortunately some do. I prefer to hear a bit of quiet noises of the clean groove, that contain something of the music, rather than generate clinically clean files that may, eventually, sound a bit dead. If you do not agree, do not download my rips and buy instead digital files or CDs.
When I listen to music I “don’t hear” any noise: I enjoy the music 😀
I do not make rips for headphones!

  • Software: iZotope RX 5 Advanced, Adobe Audition CS 5.5, Twisted Wave 1.18
  • Very careful de-clicking with iZotope, significant clicks manually removed, never de-noising
  • DR-Analisys
  • Wave 32/192(32/384) —> Flac 24/96 & 24/192: Twisted Wave 1.18
  • Artwork: Sony Alpha 350, Epson Perfection V750 Pro, Photoshop CS 5.5

 

16 thoughts on “HD-Vinyl 24/192 (Philips) Johann Sebastian Bach – 3 Sonatas And 3 Partitas For Violin Solo (Kremer)

  1. Kremer’s interpretation is stunningly good and ,in my humble opinion, rates amongst the very best ones…the rip is suberb! Thanks again Rach & Jean-Luc!

Leave a Reply