HD-Vinyl 24/192 (Philips) Ludwig van Beethoven – String Quartets Op. 127 & Op. 135 (Quartetto Italiano)

front-small-boxset
A great great “THANK YOU” to Jean-Luc for this 1st pressing

In the late quartets Beethoven continued to evolve many of his compositional techniques: he manages to add to the harmonic rules of before and does new things in the way of tonality and form. These quartets have a sound world all of their own, and create a small-scale effect quite different from the massive-sounding works that came before, such as the “Hammerklavier” sonata and the 9th Symphony. It would be fair to say that no other artist has ever mangaged to reach such spiritual heights. The Quartetto Italiano give superbly polished performances which are able to express the refined tones of these works. Compare their well-rehearsed renditions that come close to perfection with the more ruffled recordings of the Vegh Quartet, for example, and one really appreciates the way in which they are able to sustain the superhuman requirements of these pieces. With the Vegh team we hear 4 human beings, with these recordings we hear Beethoven’s unique vision.

Composer: Ludwig van Beethoven
Performer: Quartetto Italiano
Vinyl 1968
Number of Discs: 1
Format: Flac
Label: Philips
DR-Analysis: DR 14
Size: 2.5 GB
Scan: yes
Server: FileFactory

The “middle period” quartets (op. 59, 74, 95) shows Beethoven at his most “Heroic” style composing broad, sweeping, and increasing complex part writing – so much that the fickle Viennese audiences used to Haydn’s and Mozart’s classical style were not quite sure what to think of them.

Even more abstract to audiences (outside Beethoven’s quartet friends) were the late works (Op. 127, 130-135) which progress to totally new ideas, sounds and organization. These included unusual, frequent and unexpected shifts in dynamics, tempo and key modulations. But most historic was an intangible emotive quality Beethoven introduced to music which might be termed “spirituality.” What is most amazing is that these musical revolutions all were developed when in Bethoven’s final years lived in a state of sadness, illness, deafness and isolation. Yet, having a lifetime of notes and music in his head, his composing skills were not limited at all by this deafness but perhaps even more focused. With their highly evolutionary form and spiritual nature, the late quartets are in a category of their own and have provoked many an analysis as to their meaning and connection to Beethoven’s final years.

The Quartetto Italiano show why they were a legendary quartet in the 60’s and 70’s with a remarkable performance of great depth here. Complementing them is a vibrant Philips recording in spite of its 60’s heritage. The sound is very good. Their playing is masterful, dramatic and probing – all while maintaining their characteristic smooth and emotive style that has endeared them for generations.

Tracklist

  Streichquartett Nr. 12 Es – Dur Op. 127
A1 Maestoso – Allegro
A2 Adagio, Ma Non Troppo E Molto Cantabile
A3 Scherzando Vivace
B1 Finale
  Streichquartett Nr. 16 F – Dur Op. 135
B2 Allegretto
B3 Vivace
B4 Lento Assai, Cantante E Tranquillo
B5 Der Schwer Gefasste Entschluss (Grave – Allegro. Grave Ma Non Troppo Tratto – Allegro)

———————————————————————————————-
Analyzed folder: /192k LvB – String Quartets Op. 127, 135 (Quartetto Italiano)
———————————————————————————————-
DR        Peak        RMS        Filename
———————————————————————————————-
DR13        -0.95 dB     -18.28 dB     A1 Streichquartett Nr. 12 Es – Dur Op. 127 Maestoso – Allegro.aif
DR15        -3.17 dB     -23.66 dB     A2 Streichquartett Nr. 12 Es – Dur Op. 127 Adagio, Ma Non Troppo E Molto Cantabile.aif
DR14        -0.93 dB     -19.74 dB     A3 Streichquartett Nr. 12 Es – Dur Op. 127 Scherzando Vivace.aif
DR13        -1.56 dB     -19.27 dB     B1 Streichquartett Nr. 12 Es – Dur Op. 127 Finale.aif
DR15        -1.24 dB     -22.40 dB     B2 Streichquartett Nr. 16 F – Dur Op. 135 Allegretto.aif
DR14        -1.48 dB     -20.89 dB     B3 Streichquartett Nr. 16 F – Dur Op. 135 Vivace.aif
DR13        -9.90 dB     -27.78 dB     B4 Streichquartett Nr. 16 F – Dur Op. 135 Lento Assai, Cantante E Tranquillo.aif
DR13        -1.88 dB     -20.60 dB     B5 Streichquartett Nr. 16 F – Dur Op. 135 Der Schwer Gefasste Entschluss (Grave – Allegro. Grave Ma Non Troppo Tratto – Allegro).aif
———————————————————————————————-
Number of files:    8
Official DR value:    DR14
==============================================================================================

Ripping Info

Monitoring

  • Software: iZotope RX 4 Advanced, Adobe Audition CS 5.5, Twisted Wave 1.9
  • Super light de-clicking with iZotope, significant clicks manually removing, no de-noising
  • DR-Analisys before converting to Flac
  • Converting Wave -> Flac: Twisted Wave 1.9
  • Artwork: Sony Alpha 350, Epson Perfection V750 Pro, Photoshop CS 5.5

DONATION !
If you like what i do, please consider that a little donation would be very appreciated.
I reinvest all donations in maintenance of my rig, for purchasing cleaning solutions and, most important of all, purchasing of new vinyls.
Click on the “Donate”-button. Thank you very much !

DL from FileFactory

PW: LaWally

 

8 thoughts on “HD-Vinyl 24/192 (Philips) Ludwig van Beethoven – String Quartets Op. 127 & Op. 135 (Quartetto Italiano)”

  1. Thanks to both of you 🙂
    This goes very nicely with Steve’s recent post of the ‘Rasumovsky’ String Quartets, also by Quartetto Italiano

Leave a Reply