HD-Vinyl 24/96 (Amadeo) Ludwig van Beethoven – Complete Piano Sonatas (Gulda)

front-small-boxset
Not quite 50 years since I first heard a Beethoven sonata. In all this time I have never had such a powerful, visceral, response to a recording. Gulda’s tempo is on the quicker side. Here the issue is between two approaches. (1)”I have brilliant technique, I’ll translate the music in these terms”. Or (2) Beethoven requires this intensity and tempo. I have the necessary technical skill. So lets deploy it.” Gulda is unquestionably in the second category. Those in the first…You know who you are!
The most striking thing, consistently throughout the cycle, is the unselfconscious, almost “simple” or naive playing on the Steinway. It felt, at times, as though I had never heard these sonatas before. I found myself thinking the most absurd thought, “This is how Beethoven would want it played.” As I say, absurd. Nevertheless….That was the feeling… Point is the impression was one of absolute authenticity and truth to the score. And Beethoven’s vision… And a revalation, after so many years of listening to these works…
Over fifty years I’ve heard and collected several sets of the Beethoven sonatas. Rubinstein, the wonderful Poetical Solomon, some Intense Backhaus, Grand Arrau, Precise Pollini. And others. Each has brought great pleasure and insight into these wonderful sonatas. None, ever, has had this intense an impact, on first hearing.

Composer: Ludwig van Beethoven
Performer: Friedrich Gulda
Vinyl 1968
Number of discs: 11
Format: Flac
Label: Amadeo
DR-Analysis:
DR 12
Size: 11.86 GB
Scan: yes
Server: FF

Gulda’s Beethoven cycle is the best I’ve ever heard, aside from Kempff’s. And in some ways, it is even better. First, Gulda’s technique is better than any I have ever heard, sailing through the most difficult passages with audible ease. Of course such facility would be meaningless, if not in the service of the music, which is the second point. Gulda is totally unselfconscious, so that I do not hear his “interpretation,” but only the meaning of the music. Everything is there: dynamic control second to none, fantastic range of color and touch, perfectly judged tempi, and superbly intelligent phrasing. The result is that the counterpoint is clarified as never before, and also the long-term structural thrust of each movement and of the whole sonata. Third, the sound is (to me) excellent–utterly clear and present without annoying reverberation, “bite,” or mushiness.

Only very few other sets that can compete with Gulda’s, to my ears…I own Brendel, Kempff, Arrau, Solomon, Rubinstein, Backhaus and when I hear to one of them I believe, there is no other better cycle out there….. Then I hear another set and think the same. And then another one and again the same thinking. Very hard to make a choice and I’m happy to have them all. I would not be without either one now.

Tracklist

  Sonate Nr. 1 F-Moll Op. 2,1 (1795) 15:06
A1 Allegro 3:26
A2 Adagio 4:30
A3 Menuetto: Allegretto 2:30
A4 Prestissimo 4:28
  Sonate Nr. 2 A-Dur Op. 2,2 (1795) 21:10
A5 Allegro Vivace 6:15
A6 Largo Appassionato 6:26
B1 Scherzo: Allegretto 2:34
B2 Rondo: Grazioso 5:45
  Sonate Nr. 12 As-Dur Op. 26 (1800-01) 18:40
B3 Andante Con Variazioni 6:45
B4 Scherzo: Allegro Molto 2:19
B5 Marcia Funebre 6:58
B6 Allegro 2:25
  Sonate Nr. 3 C-Dur Op. 2,3 (1795) 22:55
C1 Allegro Con Brio 9:43
C2 Adagio 5:42
C3 Scherzo: Allegro 2:43
C4 Allegro Assai 4:42
  Sonate Nr. 4 Es-Dur Op. 7 (Wahrscheinlich 1796-97) 24:52
D1 Allegro Molto E Con Brio 7:21
D2 Largo, Con Gran Espressione 6:53
D3 Allegro 4:44
D4 Rondo: Poco Allegretto E Grazioso 5:43
  Sonate Nr. 5 C-Moll Op. 10,1 (1796-98) 15:52
E1 Allegro Molto E Con Brio 4:50
E2 Adagio Molto 7:12
E3 Finale, Prestissimo 3:43
  Sonate Nr. 6 F-Dur Op. 10,2 (1796-98) 11:48
E4 Allegro 4:54
E5 Allegretto 3:07
F1 Presto 3:34
  Sonate Nr. 7 D-Dur Op. 10,3 (1796-98) 20:37
F2 Presto 6:20
F3 Largo E Mesto 7:53
F4 Menuetto: Allegro 2:48
F5 Rondo: Allegro 3:24
  Sonate Nr. 8 C-Moll Op. 13 “Pathétique” (1798-99) 17:40
G1 Grave – Allegro Di Molto E Con Brio 8:12
G2 Adagio Cantabile 5:10
G3 Rondo: Allegro 4:10
  Sonate Nr. 22 F-Dur Op. 54 (1804) 10:32
G4 In Tempo D’Un Menuetto 5:08
G5 Allegretto 5:20
  Sonate Nr. 9 E-Dur Op. 14,1 (Vermutlich 1798-99 Oder Früher) 12:15
H1 Allegro 6:12
H2 Allegretto 2:54
H3 Rondo: Allegro Commodo 3:01
  Sonate Nr. 10 G-Dur Op. 14,2 (Vermutlich 1798-99 Oder Früher) 14:34
H4 Allegro 6:52
H5 Andante 4:44
H6 Scherzo: Allegro Assai 2:49
  Sonate Nr. 14 Cis-Moll Op. 27,2 “Mondschein-Sonate” (1801) 15:50
I1 Adagio Sostenuto 6:21
I2 Allegretto -Trio 2:23
I3 Presto Agitato 6:53
  Sonate Nr. 11 B-Dur Op. 22 (1799-1800) 20:25
I4 Allegro Con Brio 6:44
I5 Adagio E Con Molt’ Espressione 5:29
J1 Menuetto 2:59
J2 Rondo: Allegretto 4:59
  Sonate Nr. 23 F-Moll Op. 57 “Appassionata” (1804-05) 20:13
J3 Allegro Assai 7:26
J4 Andante Con Moto 5:32
J5 Allegro Ma Non Troppo – Presto 7:11
  Sonate Nr. 16 G-Dur Op. 31,1 (1801-02) 19:35
K1 Allegro Vivace 5:53
K2 Adagio Grazioso 7:48
K3 Rondo: Allegretto – Adagio – Presto 5:48
  Sonate Nr. 17 D-Moll Op. 31,2 “Der Sturm” (18001-02) 20:47
K4 Largo – Allegro 7:01
L1 Adagio 7:46
L2 Allegretto 5:53
  Sonate Nr. 27 E-Moll Op. 90 (1824) 10:34
L3 Mit Lebhaftigkeit Und Durchaus Mit Empfindung Und Ausdruck 4:30
L4 Nicht Zu Geschwind Und Sehr Singbar Vorzutragen 6:00
  Sonate Nr. 15 D-Dur Op. 28 “Pastorale” (1801) 21:50
M1 Allegro 8:56
M2 Andante 6:02
M3 Scherzo: Allegro Vivace 1:56
M4 Rondo: Allegro Ma Non Troppo 4:44
  Sonate Nr. 18 Es-Dur Op. 31,3 (1801-2) 20:06
N1 Allegro 7:48
N2 Scherzo: Allegretto Vivace 4:15
N3 Menuetto: Moderato E Grazioso 3:42
N4 Presto Con Fuoco 4:08
  Sonate Nr. 19 G-Moll Op. 49,1 (1795-98) 7:51
O1 Andante 4:53
O2 Rondo: Allegro 2:54
  Sonate Nr. 20 G-Dur Op. 49,2 (1795-98) 7:22
O3 Allegro Ma Non Troppo 4:15
O4 Tempo Di Menuetto 3:03
  Sonate Nr. 24Fis-Dur Op. 78 (À Thérèse) (1809) 9:03
O5 Adagio Cantabile – Allegro Ma Non Troppo 6:14
O6 Allegro Vivace 2:45
  Sonate Nr. 25 G-Dur Op. 79 (1809) 8:45
P1 Presto Alla Tedesca 4:26
P2 Andante 2:30
P3 Vivace 1:42
  Sonate Nr. 28 A-Dur Op. 101 (1816) 19:52
P4 Etwas Lebhaft Und Mit Der Innigsten Empfindung (Allegretto Ma Non Troppo) 3:35
P5 Lebhaft Marschmäßig (Vivace Alla Marcia) 6:21
P6 Langsam Und Sehnsuchtsvoll (Adagio Ma Non Troppo, Con Affetto – Presto) – Geschwinde, Doch Nicht Zu Sehr Und Mit Enschlossenheit (Allegro) 9:47
  Sonate Nr. 21 C-Dur Op. 53 “Waldstein-Sonate” (1803-04) 20:25
R1 Allegro Con Brio 9:21
R2 Introduzione Adagio Molto 2:45
R3 Rondo Allegro Moderato – Prestissimo 8:15
  Sonate Nr. 26 Es-Dur Op. 81,a “Les Adieux” (1809-10) 14:15
R4 Das Lebewohl (Les Adieux): Adagio – Allegro 5:52
S1 Die Abwesenheit (L’Absence): Andante Espressivo 3:17
S2 Wiedersehen (Le Retour): Vivacissimente – Poco Andante 5:00
  Sonate Nr. 13 Es-Dur Op. 27,1 (1800-01) 14:17
S3 (Sonata Quasi Una Fantasia) Andante – Allegro 5:03
S4 Allegro Molto E Vivace 1:46
S5 Adagio Con Espressione 2:30
S6 Allegro Vivace 4:54
  Sonate Nr. 29 B-Dur Op. 106 (Sonate Für Das Hammerklavier) (1817-18) 36:45
T1 Allegro 9:23
T2 Scherzo: Assai Vivace – Presto 2:15
T3 Adagio Sostenuto 13:35
U1 Largo – Allegro Risoluto 11:21
  Sonate Nr. 30 Es-Dur Op. 109 (1820) 11:21
U2 Vivace Ma Non Troppo – AdagioEspressivo / Prestissimo 5:43
U3 Geasngvoll, Mit Innigster Empfindung (Andante, Molto Cantabile Ed Espressivo) 10:54
  Sonate Nr. 31 As-Dur Op. 110 (1821) 16:56
V1 Moderato Cantabile, Molto Espressivo 6:05
V2 Allegro Molto 1:48
V3 Adagio Ma Non Troppo – Fuga: Allegro Ma Non Troppo 8:58
  Sonate Nr. 32 C-Moll Op. 111 (1821-22) 24:04
W1 Maestoso – Allegro Con Brio Ed Appassionato 8:31
W2 Arietta: Adagio Molto, Semplice E Cantabile 15:28

 

———————————————————————————————-
Analyzed folder: /96k LvB – Complete Piano Sonatas – Gulda
———————————————————————————————-
DR        Peak        RMS        Filename
———————————————————————————————-
DR10        -1.98 dB     -16.12 dB     A1 Sonate Nr. 1 F-Moll Op. 2,1 (1795) – Allegro.aif
DR13        -4.98 dB     -24.25 dB     A2 Sonate Nr. 1 F-Moll Op. 2,1 (1795) – Adagio.aif
DR11        -3.13 dB     -19.18 dB     A3 Sonate Nr. 1 F-Moll Op. 2,1 (1795) – Menuetto- Allegretto.aif
DR10        -2.42 dB     -16.75 dB     A4 Sonate Nr. 1 F-Moll Op. 2,1 (1795) – Prestissimo.aif
DR11        -1.00 dB     -15.55 dB     A5 Sonate Nr. 2 A-Dur Op. 2,2 (1795) – Allegro Vivace.aif
DR12        -0.94 dB     -19.03 dB     A6 Sonate Nr. 2 A-Dur Op. 2,2 (1795) – Largo Appassionato.aif
DR12        -3.24 dB     -19.34 dB     B1 Sonate Nr. 2 A-Dur Op. 2,2 (1795) – Scherzo- Allegretto.aif
DR11        -1.32 dB     -17.35 dB     B2 Sonate Nr. 2 A-Dur Op. 2,2 (1795) – Rondo- Grazioso.aif
DR12        -0.99 dB     -17.75 dB     B3 Sonate Nr. 12 As-Dur Op. 26 (1800-01) – Andante Con Variazioni.aif
DR10        -1.61 dB     -15.34 dB     B4 Sonate Nr. 12 As-Dur Op. 26 (1800-01) – Scherzo- Allegro Molto.aif
DR12        -0.53 dB     -17.67 dB     B5 Sonate Nr. 12 As-Dur Op. 26 (1800-01) – Marcia Funebre.aif
DR11        -1.63 dB     -16.21 dB     B6 Sonate Nr. 12 As-Dur Op. 26 (1800-01) – Allegro.aif
DR12        -1.00 dB     -17.34 dB     C1 Sonate Nr. 3 C-Dur Op. 2,3 (1795) – Allegro Con Brio.aif
DR15        -1.27 dB     -23.11 dB     C2 Sonate Nr. 3 C-Dur Op. 2,3 (1795) – Adagio.aif
DR12        -1.85 dB     -18.34 dB     C3 Sonate Nr. 3 C-Dur Op. 2,3 (1795) – Scherzo- Allegro.aif
DR15        -1.63 dB     -20.76 dB     C4 Sonate Nr. 3 C-Dur Op. 2,3 (1795) – Allegro Assai.aif
DR13        -0.62 dB     -17.44 dB     D1 Sonate Nr. 4 Es-Dur Op. 7 (Wahrscheinlich 1796-97) – Allegro Molto E Con Brio.aif
DR15        -0.92 dB     -21.78 dB     D2 Sonate Nr. 4 Es-Dur Op. 7 (Wahrscheinlich 1796-97) – Largo, Con Gran Espressione.aif
DR12        -2.25 dB     -19.63 dB     D3 Sonate Nr. 4 Es-Dur Op. 7 (Wahrscheinlich 1796-97) – Allegro.aif
DR12        -3.20 dB     -19.83 dB     D4 Sonate Nr. 4 Es-Dur Op. 7 (Wahrscheinlich 1796-97) – Rondo- Poco Allegretto E Grazioso.aif
DR11        -1.56 dB     -15.94 dB     E1 Sonate Nr. 5 C-Moll Op. 10,1 (1796-98) – Allegro Molto E Con Brio.aif
DR13        -0.92 dB     -19.63 dB     E2 Sonate Nr. 5 C-Moll Op. 10,1 (1796-98) – Adagio Molto.aif
DR10        -0.76 dB     -14.63 dB     E3 Sonate Nr. 5 C-Moll Op. 10,1 (1796-98) – Finale, Prestissimo.aif
DR11        -1.45 dB     -16.46 dB     E4 Sonate Nr. 6 F-Dur Op. 10,2 (1796-98) – Allegro.aif
DR13        -1.86 dB     -19.43 dB     E5 Sonate Nr. 6 F-Dur Op. 10,2 (1796-98) – Allegretto.aif
DR10        -1.47 dB     -14.20 dB     F1 Sonate Nr. 6 F-Dur Op. 10,2 (1796-98) – Presto.aif
DR10        -0.93 dB     -15.23 dB     F2 Sonate Nr. 7 D-Dur Op. 10,3 (1796-98) – Presto.aif
DR12        -0.64 dB     -18.17 dB     F3 Sonate Nr. 7 D-Dur Op. 10,3 (1796-98) – Largo E Mesto.aif
DR10        -2.15 dB     -18.13 dB     F4 Sonate Nr. 7 D-Dur Op. 10,3 (1796-98) – Menuetto- Allegro.aif
DR12        -1.63 dB     -17.75 dB     F5 Sonate Nr. 7 D-Dur Op. 10,3 (1796-98) – Rondo- Allegro.aif
DR11        -2.94 dB     -18.36 dB     G1 Sonate Nr. 8 C-Moll Op. 13 ‘Pathetique’ (1798-99) – Grave – Allegro Di Molto E Con Brio.aif
DR14        -1.25 dB     -21.34 dB     G2 Sonate Nr. 8 C-Moll Op. 13 ‘Pathetique’ (1798-99) – Adagio Cantabile.aif
DR11        -1.85 dB     -17.88 dB     G3 Sonate Nr. 8 C-Moll Op. 13 ‘Pathetique’ (1798-99) – Rondo- Allegro.aif
DR12        -1.45 dB     -18.33 dB     G4 Sonate Nr. 22 F-Dur Op. 54 (1804) – In Tempo D’Un Menuetto.aif
DR11        -1.51 dB     -16.08 dB     G5 Sonate Nr. 22 F-Dur Op. 54 (1804) – Allegretto.aif
DR12        -1.24 dB     -17.58 dB     H1 Sonate Nr. 9 E-Dur Op. 14,1 (Vermutlich 1798-99 Oder Frueher) – Allegro.aif
DR13        -2.76 dB     -20.70 dB     H2 Sonate Nr. 9 E-Dur Op. 14,1 (Vermutlich 1798-99 Oder Frueher) – Allegretto.aif
DR10        -1.11 dB     -16.12 dB     H3 Sonate Nr. 9 E-Dur Op. 14,1 (Vermutlich 1798-99 Oder Frueher) – Rondo- Allegro Commodo.aif
DR11        -1.88 dB     -17.11 dB     H4 Sonate Nr. 10 G-Dur Op. 14,2 (Vermutlich 1798-99 Oder Frueher) – Allegro.aif
DR13        -2.89 dB     -19.48 dB     H5 Sonate Nr. 10 G-Dur Op. 14,2 (Vermutlich 1798-99 Oder Frueher) – Andante.aif
DR12        -1.56 dB     -17.19 dB     H6 Sonate Nr. 10 G-Dur Op. 14,2 (Vermutlich 1798-99 Oder Frueher) – Scherzo- Allegro Assai.aif
DR15        -4.12 dB     -23.61 dB     I1 Sonate Nr. 14 Cis-Moll Op. 27,2 ‘Mondschein-Sonate’ (1801) – Adagio Sostenuto.aif
DR13        -2.22 dB     -19.67 dB     I2 Sonate Nr. 14 Cis-Moll Op. 27,2 ‘Mondschein-Sonate’ (1801) – Allegretto -Trio.aif
DR11        -0.53 dB     -14.54 dB     I3 Sonate Nr. 14 Cis-Moll Op. 27,2 ‘Mondschein-Sonate’ (1801) – Presto Agitato.aif
DR11        -0.96 dB     -15.48 dB     I4 Sonate Nr. 11 B-Dur Op. 22 (1799-1800) – Allegro Con Brio.aif
DR12        -2.80 dB     -19.76 dB     I5 Sonate Nr. 11 B-Dur Op. 22 (1799-1800) – Adagio E Con Molt’ Espressione.aif
DR10        -2.40 dB     -16.01 dB     J1 Sonate Nr. 11 B-Dur Op. 22 (1799-1800) – Menuetto.aif
DR10        -1.19 dB     -13.88 dB     J2 Sonate Nr. 11 B-Dur Op. 22 (1799-1800) – Rondo- Allegretto.aif
DR12        -1.23 dB     -17.95 dB     J3 Sonate Nr. 23 F-Moll Op. 57 ‘Appassionata’ (1804-05) – Allegro Assai.aif
DR13        -4.23 dB     -24.18 dB     J4 Sonate Nr. 23 F-Moll Op. 57 ‘Appassionata’ (1804-05) – Andante Con Moto.aif
DR12        -1.39 dB     -16.69 dB     J5 Sonate Nr. 23 F-Moll Op. 57 ‘Appassionata’ (1804-05) – Allegro Ma Non Troppo – Presto.aif
DR12        -1.83 dB     -17.58 dB     K1 Sonate Nr. 16 G-Dur Op. 31,1 (1801-02) – Allegro Vivace.aif
DR14        -2.84 dB     -21.12 dB     K2 Sonate Nr. 16 G-Dur Op. 31,1 (1801-02) – Adagio Grazioso.aif
DR12        -1.53 dB     -17.94 dB     K3 Sonate Nr. 16 G-Dur Op. 31,1 (1801-02) – Rondo- Allegretto – Adagio – Presto.aif
DR12        -0.99 dB     -16.81 dB     K4 Sonate Nr. 17 D-Moll Op. 31,2 ‘Der Sturm’ (18001-02) – Largo – Allegro.aif
DR17        -1.14 dB     -23.09 dB     L1 Sonate Nr. 17 D-Moll Op. 31,2 ‘Der Sturm’ (18001-02) – Adagio.aif
DR11        -0.89 dB     -15.33 dB     L2 Sonate Nr. 17 D-Moll Op. 31,2 ‘Der Sturm’ (18001-02) – Allegretto.aif
DR13        -0.89 dB     -17.99 dB     L3 Sonate Nr. 27 E-Moll Op. 90 (1824) – Mit Lebhaftigkeit Und Durchaus Mit Empfindung Und Ausdruck.aif
DR13        -1.28 dB     -18.75 dB     L4 Sonate Nr. 27 E-Moll Op. 90 (1824) – Nicht Zu Geschwind Und Sehr Singbar Vorzutragen.aif
DR14        -1.78 dB     -20.32 dB     M1 Sonate Nr. 15 D-Dur Op. 28 ‘Pastorale’ (1801) – Allegro.aif
DR15        -2.70 dB     -23.56 dB     M2 Sonate Nr. 15 D-Dur Op. 28 ‘Pastorale’ (1801) – Andante.aif
DR14        -0.66 dB     -19.20 dB     M3 Sonate Nr. 15 D-Dur Op. 28 ‘Pastorale’ (1801) – Scherzo- Allegro Vivace.aif
DR12        -0.60 dB     -19.34 dB     M4 Sonate Nr. 15 D-Dur Op. 28 ‘Pastorale’ (1801) – Rondo- Allegro Ma Non Troppo.aif
DR14        -0.72 dB     -20.58 dB     N1 Sonate Nr. 18 Es-Dur Op. 31,3 (1801-2) – Allegro.aif
DR16        -1.31 dB     -21.29 dB     N2 Sonate Nr. 18 Es-Dur Op. 31,3 (1801-2) – Scherzo- Allegretto Vivace.aif
DR16        -3.63 dB     -25.09 dB     N3 Sonate Nr. 18 Es-Dur Op. 31,3 (1801-2) – Menuetto- Moderato E Grazioso.aif
DR11        -2.63 dB     -18.24 dB     N4 Sonate Nr. 18 Es-Dur Op. 31,3 (1801-2) – Presto Con Fuoco.aif
DR12        -1.60 dB     -18.80 dB     O1 Sonate Nr. 19 G-Moll Op. 49,1 (1795-98) – Andante.aif
DR11        -2.21 dB     -18.10 dB     O2 Sonate Nr. 19 G-Moll Op. 49,1 (1795-98) – Rondo- Allegro.aif
DR11        -1.81 dB     -17.18 dB     O3 Sonate Nr. 20 G-Dur Op. 49,2 (1795-98) – Allegro Ma Non Troppo.aif
DR12        -2.30 dB     -18.92 dB     O4 Sonate Nr. 20 G-Dur Op. 49,2 (1795-98) – Tempo Di Menuetto.aif
DR12        -1.36 dB     -17.44 dB     O5 Sonate Nr. 24Fis-Dur Op. 78 (A Therese) (1809) – Adagio Cantabile – Allegro Ma Non Troppo.aif
DR11        -1.52 dB     -16.96 dB     O6 Sonate Nr. 24Fis-Dur Op. 78 (A Therese) (1809) – Allegro Vivace.aif
DR11        -1.03 dB     -15.65 dB     P1 Sonate Nr. 25 G-Dur Op. 79 (1809) – Presto Alla Tedesca.aif
DR12        -4.69 dB     -21.60 dB     P2 Sonate Nr. 25 G-Dur Op. 79 (1809) – Andante.aif
DR11        -1.62 dB     -17.12 dB     P3 Sonate Nr. 25 G-Dur Op. 79 (1809) – Vivace.aif
DR13        -2.25 dB     -21.07 dB     P4 Sonate Nr. 28 A-Dur Op. 101 (1816) – Etwas Lebhaft Und Mit Der Innigsten Empfindung (Allegretto Ma Non Troppo).aif
DR13        -2.35 dB     -18.96 dB     P5 Sonate Nr. 28 A-Dur Op. 101 (1816) – Lebhaft Marschmaessig (Vivace Alla Marcia).aif
DR12        -0.83 dB     -17.73 dB     P6 Sonate Nr. 28 A-Dur Op. 101 (1816) – Langsam Und Sehnsuchtsvoll (Adagio Ma Non Troppo, Con Affetto – Presto) – Geschwinde, Doch Nicht Zu Sehr Und Mit Enschlossenheit (Allegro).aif
DR11        -1.61 dB     -16.58 dB     R1 Sonate Nr. 21 C-Dur Op. 53 ‘Waldstein-Sonate’ (1803-04) – Allegro Con Brio.aif
DR13        -5.44 dB     -25.73 dB     R2 Sonate Nr. 21 C-Dur Op. 53 ‘Waldstein-Sonate’ (1803-04) – Introduzione Adagio Molto.aif
DR11        -0.70 dB     -15.66 dB     R3 Sonate Nr. 21 C-Dur Op. 53 ‘Waldstein-Sonate’ (1803-04) – Rondo Allegro Moderato – Prestissimo.aif
DR12        -1.40 dB     -18.15 dB     R4 Sonate Nr. 26 Es-Dur Op. 81,a ‘Les Adieux’ (1809-10) – Das Lebewohl (Les Adieux)- Adagio – Allegro.aif
DR13        -2.20 dB     -21.65 dB     S1 Sonate Nr. 26 Es-Dur Op. 81,a ‘Les Adieux’ (1809-10) – Die Abwesenheit (L’Absence)- Andante Espressivo.aif
DR10        -1.20 dB     -14.82 dB     S2 Sonate Nr. 26 Es-Dur Op. 81,a ‘Les Adieux’ (1809-10) – Wiedersehen (Le Retour)- Vivacissimente – Poco Andante.aif
DR14        -3.33 dB     -22.82 dB     S3 Sonate Nr. 13 Es-Dur Op. 27,1 (1800-01) – (Sonata Quasi Una Fantasia) Andante – Allegro.aif
DR11        -2.45 dB     -18.55 dB     S4 Sonate Nr. 13 Es-Dur Op. 27,1 (1800-01) – Allegro Molto E Vivace.aif
DR13        -3.85 dB     -23.43 dB     S5 Sonate Nr. 13 Es-Dur Op. 27,1 (1800-01) – Adagio Con Espressione.aif
DR12        -1.89 dB     -18.35 dB     S6 Sonate Nr. 13 Es-Dur Op. 27,1 (1800-01) – Allegro Vivace.aif
DR11        -0.80 dB     -15.63 dB     T1 Sonate Nr. 29 B-Dur Op. 106 (Sonate Fuer Das Hammerklavier) (1817-18) – Allegro Vivace.aif
DR11        -1.82 dB     -17.92 dB     T2 Sonate Nr. 29 B-Dur Op. 106 (Sonate Fuer Das Hammerklavier) (1817-18) – Scherzo- Assai Vivace – Presto.aif
DR13        -2.13 dB     -20.66 dB     T3 Sonate Nr. 29 B-Dur Op. 106 (Sonate Fuer Das Hammerklavier) (1817-18) – Adagio Sostenuto.aif
DR11        -1.32 dB     -16.51 dB     U1 Sonate Nr. 29 B-Dur Op. 106 (Sonate Fuer Das Hammerklavier) (1817-18) – Largo – Allegro Risoluto.aif
DR12        -0.83 dB     -16.39 dB     U2 Sonate Nr. 30 Es-Dur Op. 109 (1820) – Vivace Ma Non Troppo – Adagio Espressivo – Prestissimo.aif
DR11        -1.32 dB     -17.39 dB     U3 Sonate Nr. 30 Es-Dur Op. 109 (1820) – Geasngvoll, Mit Innigster Empfindung (Andante, Molto Cantabile Ed Espressivo).aif
DR12        -1.80 dB     -18.80 dB     V1 Sonate Nr. 31 As-Dur Op. 110 (1821) – Moderato Cantabile, Molto Espressivo.aif
DR11        -1.15 dB     -16.50 dB     V2 Sonate Nr. 31 As-Dur Op. 110 (1821) – Allegro Molto.aif
DR11        -0.98 dB     -17.77 dB     V3 Sonate Nr. 31 As-Dur Op. 110 (1821) – Adagio Ma Non Troppo – Fuga- Allegro Ma Non Troppo.aif
DR13        -0.72 dB     -17.60 dB     W1 Sonate Nr. 32 C-Moll Op. 111 (1821-22) – Maestoso – Allegro Con Brio Ed Appassionato.aif
DR12        -0.81 dB     -18.64 dB     W2 Sonate Nr. 32 C-Moll Op. 111 (1821-22) – Arietta- Adagio Molto, Semplice E Cantabile.aif
———————————————————————————————-
Number of files:    100
Official DR value:    DR12
==============================================================================================

 

Ripping Info

Monitoring

  • Software: iZotope RX 4 Advanced, Adobe Audition CS 5.5, Twisted Wave 1.9
  • Super light de-clicking with iZotope, significant clicks manually removing, no de-noising
  • DR-Analisys before converting to Flac
  • Converting Wave -> Flac: Twisted Wave 1.9
  • Artwork: Sony Alpha 350, Epson Perfection V750 Pro, Photoshop CS 5.5

DONATION !
If you like what i do, please consider that a little donation would be very appreciated.
I reinvest all donations in maintenance of my rig, for purchasing cleaning solutions and, most important of all, purchasing of new vinyls.
Click on the “Donate”-button.

Thank you very much !

DL from FileFactory

PW: LaWally

20 thoughts on “HD-Vinyl 24/96 (Amadeo) Ludwig van Beethoven – Complete Piano Sonatas (Gulda)”

  1. Thanks, the sound is certainly better than the equivalent CD version.

    There is no single best way to interpret these seminal works but Gulda is very impressive.

  2. Hi Rach,
    Why did my download of 19 leads finish and the tiny window came up telling me link 20 was missing?
    A little wise counsel for an old codger.
    Bob

    1. maybe your page displays only 19 rars? There must be a second page that displays the remaining 4 rars (20-23) …..that’s all 😀

Leave a Reply