HD-Vinyl 24/96 (Claves) Harp & Flute (Holliger/Graf)

Something particular for you, my friends. Have a nice weekend.
Reposted, now with FF links.

# Composer: Rossini, Donizetti, Spohr, Paganini, Fauré, Lauber
# Performer: Ursula Holliger, Peter-Lukas Graf
# Vinyl (1977)
# Number of Discs: 1
# Format: Flac
# Label: Claves
# DR-Analysis: DR 13

# Size: 956 MB
# Scan: yes
# Server: FileFactory


 Analyzed folder: /96k Flute and Harp – Graf-Holliger
 DR        Peak        RMS        Filename
 DR13        -2.67 dB     -21.56 dB     B2 Faure – Impromptu.wav
 DR13        -2.32 dB     -20.60 dB     B3 Lauber – Quatre Danses Medievales Op. 45.wav
 DR13        -1.68 dB     -19.00 dB     B1 Faure – Fantaisie Op. 79.wav
 DR14        -1.36 dB     -19.27 dB     A4 Paganini – Variazioni Di Bravura.wav
 DR14        -3.94 dB     -21.74 dB     A3 Spohr – Pot-pourri On Themes By Mozart’s ‘Magic Flute’.wav
 DR12        -0.85 dB     -18.51 dB     A2 Donizetti – Larghetto E Allegro.wav
 DR11        -4.74 dB     -19.97 dB     A1 Rossini – Andante Con Variazioni.wav
 Number of files:    7
 Official DR value:    DR13

Ripping Infos

  • RCM: Okki Nokki
  • TT: Clearaudio Champion Level II
  • System: Limited Edition Denon DL 103 SA
  • Phono stage: Pro-Ject Phono Box II
  • Pre Amp: Unison Research Unico Pre (Tube)
  • Finals: Opera Consonance 9.9 Mono (Tube)
  • Speakers: Dali Helikon 400
  • Connections: MIT Terminator, Audioquest Emerald, Audioquest Quartz
  • Software: iZotope RX Advanced v2.02, Adobe Audition CS 5.5, Twisted Wave 1.9
  • Light de-Clicking with iZotope, significant clicks manually removing, no De-Noising

If You hear some clicks and pops here and there, Who cares?
Id rather have a few light anomalies instead of destroying the music. Enjoy the music, not the ticks & pops

  • DR-Analisys before converting to Flac
  • Converting Wave -> Flac: Twisted Wave 1.9
  • Artwork: Sony Alpha 350, Epson Perfection V750 Pro, Photoshop CS 5.5

If you like what i do, please consider that a little donation would be very appreciate. I reinvest all donations in maintenance of my rig, for purchasing cleaning solutions and, most important of all, purchasing of new vinyls.
Click on the “Donate”-button. Thank you very much !

Download from FileFactory

3 archives
PW: LaWally

32 thoughts on “HD-Vinyl 24/96 (Claves) Harp & Flute (Holliger/Graf)

  1. I’ve always thought in the back of my mind that I’d love to have some nice harp music to put on. This really should be outstanding, and I’m stoked to hear it. Thanks Rachmaninov!

  2. Seems very hard to get Harp music hopefully I see a little more of it one of my favorite instruments to listen to love seeing beautiful girls playing it! lol

Leave a Reply