HD-Vinyl 24/96 (Columbia) Joseph Haydn – Symphonies 98 & 101 (Otto Klemperer)

All thanks for this beauty go to Jean-Luc
Otto Klemperer takes Haydn very seriously. While some might find his approach overly deliberate and lacking in vitality and humor, I find it profound. He recognizes Haydn as the great master whom we was. And the orchestral playing is perfectly balanced and extremely beautiful.

Composer: Joseph Haydn
Philharmonia Orchestra
Conductor: Otto Klemperer
Vinyl 196?
Number of discs: 1
Format: Flac
Label: Columbia
DR 13
Size: 1.09 GB
Scan: yes
Server: FF

Review about a 3-CD-Box containingsome of the later Haydn-Symphonies.

This three-disc 2008 EMI set called Haydn Favorite Symphonies featuring conductor Otto Klemperer leading either the Philharmonia or the New Philharmonia is a straight reissue of recordings previously reissued on CD in 1990. Previously, it was part of EMI’s Otto Klemperer series devoted to the recordings of the indomitable German conductor. Here, it is part of EMI’s “3” series of three-disc set re-releases devoted to specific chunks of the standard and not-so-standard orchestral repertoire. Either way, the set contains five superlative old-school Haydn interpretations recorded between 1960 and 1972, the year before the conductor’s death. There’s no denying that the earlier performances are more robust. The vigorous tempo of No. 88’s closing Allegro con spirito and the smooth legato of No. 98’s Adagio cantabile are outstanding examples of Klemperer at the peak of his strength and concentration. But the force of No. 95’s opening Allegro moderato and the intensity of No. 102’s Adagio are incontrovertible proof of Klemperer in the wisdom of his old age. Whether with the polished Philharmonia in the two oldest recordings or the equally polished New Philharmonia in the later recordings, EMI’s stereo sound is rich, lush, and deep. Anyone interested in Haydn or Klemperer who does not already have these recordings on their shelf should certainly check out this release.

Analyzed folder: /96k Haydn – Symphonies 98, 101 – Klemperer
DR        Peak        RMS        Filename
DR14        -0.74 dB     -19.26 dB     A1 Symphony No. 98 in B Flat Major – I. Adagio – Allegro.aif
DR12        -2.59 dB     -21.70 dB     A2 Symphony No. 98 in B Flat Major – II. Adagio.aif
DR14        -5.26 dB     -23.06 dB     A3 Symphony No. 98 in B Flat Major – III. Menuet (Allegro) and Trio.aif
DR14        -0.79 dB     -20.21 dB     A4 Symphony No. 98 in B Flat Major – IV. Finale (Presto).aif
DR13        -0.72 dB     -18.24 dB     B1 Symphony No. 101 in D ‘Clock’ – I. Adagio – Presto.aif
DR12        -2.05 dB     -20.30 dB     B2 Symphony No. 101 in D ‘Clock’ – II. Andante.aif
DR13        -1.79 dB     -19.24 dB     B3 Symphony No. 101 in D ‘Clock’ – III. Menuet.aif
DR13        -1.45 dB     -18.98 dB     B4 Symphony No. 101 in D ‘Clock’ – IV. Vivace.aif
Number of files:    8
Official DR value:    DR13


Ripping Info


  • Software: iZotope RX 4 Advanced, Adobe Audition CS 5.5, Twisted Wave 1.9
  • Super light de-clicking with iZotope, significant clicks manually removing, no de-noising
  • DR-Analisys before converting to Flac
  • Converting Wave -> Flac: Twisted Wave 1.9
  • Artwork: Sony Alpha 350, Epson Perfection V750 Pro, Photoshop CS 5.5

If you like what i do, please consider that a little donation would be very appreciated.
I reinvest all donations in maintenance of my rig, for purchasing cleaning solutions and, most important of all, purchasing of new vinyls.
Click on the “Donate”-button. Thank you very much !

DL from FileFactory

PW: LaWally

8 thoughts on “HD-Vinyl 24/96 (Columbia) Joseph Haydn – Symphonies 98 & 101 (Otto Klemperer)

  1. Supercalifrgilisticexpialidocious!
    Super cali frgilistic expiali docious! (A Walt Disney word).
    Haydn could never in his day dream of an orchestra like The Philharmonia Orchestra of London.

    No. 98 sounds super in this Hi-Def rendition. I love it!

  2. Very fine recording and performances! I find Klemperer is perfect for Haydn.
    Thanks both for another excellent Haydn 😀

Leave a Reply