HD-Vinyl 24/96 (Concert Hall) Wolfgang Amadeus Mozart – Organ Sonatas

All thanks for this rarity go to Lemarquis
WAM is normally not the first name that comes you in mind, when you think of organ music. Mozart composed these 17 Epistles in Salzburg during the period of 1772 until 1780, or when he was between the ages of 16 and 24 years old, as part of his duties as a musical servant of Archbishop Prince Colloredo of Salzburg. Used to bridge the liturgical gap between the singing of the Epistle and the singing of the Gospel at Mass, they are scored for two violins, bass instrument and organ ~ although three of them, intended for days of greater ceremony, involve a slightly larger ensemble.
Perhaps the tender age of the composer explains why these are such joyous works, brimful of uplifting melody and lighthearted exaltation. Here is music praising a benevolent God, a kindly Father. Concentrated and imaginative ~ the epitome of inspiring and elevating with their bright melodies and quick tempi ~ I can imagine how these would sound performed inside of a great cathedral, the music swirling in brilliant waves and echoing from the rafters, filling the worshippers with a satisfying taste of Mozart’s particular brand of heaven.
Heartening, moving, inspirational, stirring. A most delightful, eloquent foray into the sacred side of the supreme young genius of W. A. Mozart. Highly recommended!

Composer: Wolfgang Amadeus Mozart
(Organ) François Delor
Orchestra: Collegium Academicum De Genève
Conductor: Robert Dunand
Vinyl 1974
Number of discs: 1
Format: Flac
Label: Concert Hall
DR 12
Size: 1.05 MB
Scan: yes
Server: FF


A1 C Major, K.278  
A2 A Major, K.225  
A3 D Maj6r, K.144 – G Major, K.241 – D Major, K.69  
A4 C Major, K.328 – F Major K.244 – C Major K.336  
B1 C Major, K.329  
B2 F Major, K.224  
B3 B Flat Major, K.212 – E Flat Major, K.67 – B Flat Major, K.68  
B4 G Major, K.274 – D Major, K.245  
B5 F Major, K145  
B6 C Major, K.263  

Analyzed folder: /96k WAM – Sonate All’Epistola – Collegium Academicum Geneve
DR        Peak        RMS        Filename
DR12        -0.73 dB     -16.26 dB     A1 C Major, K.278.aif
DR11        -1.90 dB     -17.55 dB     A2 A Major, K.225.aif
DR11        -0.86 dB     -15.89 dB     A3 D Maj6r, K.144 – G Major, K.241 – D Major, K.69.aif
DR12        -2.88 dB     -19.58 dB     A4 C Major, K.328 – F Major K.244 – C Major K.336.aif
DR11        -0.90 dB     -15.67 dB     B1 C Major, K.329.aif
DR12        -2.15 dB     -17.84 dB     B2 F Major, K.224.aif
DR13        -1.23 dB     -18.44 dB     B3 B Flat Major, K.212 – E Flat Major, K.67 – B Flat Major, K.68.aif
DR11        -0.79 dB     -17.22 dB     B4 G Major, K.274 – D Major, K.245.aif
DR13        -1.60 dB     -19.20 dB     B5 F Major, K145.aif
DR11        -4.36 dB     -19.09 dB     B6 C Major, K.263.aif
Number of files:    10
Official DR value:    DR12


Ripping Info


  • Software: iZotope RX 4 Advanced, Adobe Audition CS 5.5, Twisted Wave 1.9
  • Super light de-clicking with iZotope, significant clicks manually removing, no de-noising
  • DR-Analisys before converting to Flac
  • Converting Wave -> Flac: Twisted Wave 1.9
  • Artwork: Sony Alpha 350, Epson Perfection V750 Pro, Photoshop CS 5.5

If you like what i do, please consider that a little donation would be very appreciated.
I reinvest all donations in maintenance of my rig, for purchasing cleaning solutions and, most important of all, purchasing of new vinyls.
Click on the “Donate”-button.

Thank you very much !

DL from FileFactory

PW: LaWally

17 thoughts on “HD-Vinyl 24/96 (Concert Hall) Wolfgang Amadeus Mozart – Organ Sonatas

  1. Many thanks to Rach & Lemarquis for this rare gem! Great music, fine musicians and excellent sound, with masterful transfer to digital format!

  2. Very stimulating music, well performed, and enjoyable to the core,
    Thank you both for this treasure. Such musical inventiveness is so uplifting!


    • Is vinyl baby…throw the headphones out of the window and hear through loudspeakers. I better let some light noise in the rip instead of destroying the music. Surface noise can’t be eliminated in complete, because it is part of the music. By denoising the music 100% also part of the music that’s in the same range as the noise will be damaged.

Leave a Reply