HD-Vinyl 24/96 (Decca) Hector Berlioz – Symphonie Fantastique (Mehta)

This is sonically one of the best “Fantastiques” out there!
Reposted, now on FF

# Composer: Hector Berlioz
# Orchestra: New York Philarmonic Orchestra
# Conductor: Zubin Mehta

# Vinyl (1980)
# Number of Discs: 1
# Format: Flac
# Label: London (Decca)
# DR-Analysis: DR 15
# ASIN CD: B000003GDV

# Size: 880 MB
# Scan: yes
# Server: FileFactory


The New York Philharmonic and Zubin Mehta are among the distinguished Berlioz interpreters on hand as you behold the immortal Symphonie Fantastique and hours of other renowned works by this immensely influential orchestral innovator.

Analyzed folder: /96kBRLZ_sypha_mtha/96k Berlioz – Symphonie Fantastique – Mehta
DR        Peak        RMS        Filename
DR15        -0.72 dB     -21.18 dB     A1 1er Mouvement – Reveries – Passions.wav
DR13        -3.23 dB     -21.39 dB     A2 2eme Mouvement – Un Bal.wav
DR18        -1.49 dB     -26.01 dB     B1 3eme Mouvement – Scene Aux Champs.wav
DR13        -0.59 dB     -18.64 dB     B2 4eme Mouvement – Marche Au Supplice.wav
DR14        -1.12 dB     -20.78 dB     B3 5eme Mouvement – Songe D’une Nuit De Sabbat.wav
Number of files:    5
Official DR value:    DR15

Ripping Infos

  • RCM: Okki Nokki
  • TT: Clearaudio Champion Level II
  • System: Limited Edition Denon DL 103 SA
  • Phono stage: Pro-Ject Phono Box II
  • Pre Amp: Unison Research Unico Pre (Tube)
  • Finals: Opera Consonance 9.9 Mono (Tube)
  • Speakers: Dali Helikon 400
  • Connections: MIT Terminator, Audioquest Emerald, Audioquest Quartz
  • Software: iZotope RX Advanced v2.02, Adobe Audition CS 5.5, Twisted Wave 1.9
  • Light de-Clicking with iZotope, significant clicks manually removing, no De-Noising

If You hear some clicks and pops here and there, Who cares?
Id rather have a few light anomalies instead of destroying the music. Enjoy the music, not the ticks & pops

  • DR-Analisys before converting to Flac
  • Converting Wave -> Flac: Twisted Wave 1.9
  • Artwork: Sony Alpha 350, Epson Perfection V750 Pro, Photoshop CS 5.5

If you like what i do, please consider that a little donation would be very appreciate. I reinvest all donations in maintenance of my rig, for purchasing cleaning solutions and, most important of all, purchasing of new vinyls.
Click on the “Donate”-button. Thank you very much !

Download from FileFactory

3 archives
PW: LaWally

7 thoughts on “HD-Vinyl 24/96 (Decca) Hector Berlioz – Symphonie Fantastique (Mehta)

  1. I would like to compare those too. And I’m pretty sure it will be pretty hard to make a decision having two equally good renditions.

Leave a Reply