HD-Vinyl 24/96 (Decca) Joseph Haydn – Symphonies No. 60 & 67 (Dorati)

Many thanks to Jean-Luc for continuing the Haydn-Symphonies
Haydn was a remarkable composer. He has yet to be discovered by most listeners…I mean, REALLY discovered and relished. For after all, as the Kapellmeister to Prince Nicholas Esterhazy for so much of his lifetime, Haydn had to create entertainment for his Prince and his “occasions”. So Haydn wrote the music, repaired the instruments, saw to it his musicians were happy, and kept Prince Nicholas totally enthralled. For recreation Haydn would go on a royal hunt, a sport he dearly loved and which shows up in his music…

Composer: Joseph Haydn
Orchestra:  Philharmonia Hungarica
Conductor: Antal Dorati

Vinyl 1971
Number of Discs: 1
Format: FLAC
Label: Decca

DR-Analysis: DR 14
Size: 1.01 GB
Scan: yes
Server: FF


Analyzed Folder: /96k Haydn – Symphonies No. 60, 67 – Dorati_dr.txt
DR Peak RMS Filename
DR13 -1.69 dB -20.11 dB A1 Symphony in C, H.I No.60 – ‘Il Distratto’ – 1. Adagio – Allegro di molto.flac
DR14 -0.48 dB -22.22 dB A2 Symphony in C, H.I No.60 – ‘Il Distratto’ – 2. Andante.flac
DR13 -0.36 dB -19.85 dB A3 Symphony in C, H.I No.60 – ‘Il Distratto’ – 3. Menuetto.flac
DR13 -1.31 dB -18.37 dB A4 Symphony in C, H.I No.60 – ‘Il Distratto’ – 4. Presto.flac
DR14 -1.53 dB -24.12 dB A5 Symphony in C, H.I No.60 – ‘Il Distratto’ – 5. Adagio (di Lamentatione).flac
DR13 -0.67 dB -17.62 dB A6 Symphony in C, H.I No.60 – ‘Il Distratto’ – 6. Finale (Prestissimo).flac
DR14 -0.21 dB -18.62 dB B1 Symphony in F, H.I No.67 – 1. Presto.flac
DR14 -2.93 dB -24.39 dB B2 Symphony in F, H.I No.67 – 2. Adagio.flac
DR13 -3.06 dB -23.85 dB B3 Symphony in F, H.I No.67 – 3. Menuetto.flac
DR15 -0.15 dB -21.83 dB B4 Symphony in F, H.I No.67 – 4. Finale. Allegro di molto – Adagio e cantabile – Allegro di molto.flac
Number of Files: 10
Official DR Value: DR14


Ripping Info


A few words about the way i’ve been cleaning vinyl records and post-processing rips, since summer 2017: After washing and recording the vinyl, I use a kind of mixed cleaning of the rip, which consists of mostly manual rather than automatic de-clicking, (the latter only on unimportant passages, such as end of the groove, beginning and end of the songs, applause, speaking). I often leave the rips almost rough, de-clicking only the silences between the tracks. Never de-noising or/and EQ, as unfortunately some do. I prefer to hear a bit of quiet noises of the clean groove, that contain something of the music, rather than generate clinically clean files that may, eventually, sound a bit dead. If you do not agree, do not download my rips and buy instead digital files or CDs.
When I listen to music I “don’t hear” any noise: I enjoy the music 😀
I do not make rips for headphones!

  • Software: iZotope RX 5 Advanced, Adobe Audition CS 5.5, Twisted Wave 1.18
  • Very careful de-clicking with iZotope, significant clicks manually removed, never de-noising
  • DR-Analisys
  • Wave 32/192(32/384) —> Flac 24/96 & 24/192: Twisted Wave 1.18
  • Artwork: Sony Alpha 350, Epson Perfection V750 Pro, Photoshop CS 5.5


4 thoughts on “HD-Vinyl 24/96 (Decca) Joseph Haydn – Symphonies No. 60 & 67 (Dorati)

Leave a Reply