HD-Vinyl 24/96 (Decca) Joseph Haydn – Symphonies No. 94 & No. 99 (Krips)

Many thanks to our friend Lemarquis for this record
Great performance of the 94th & 99th by VPO and Krips. Excellent sound and playing, especially from the winds in the 99th. The tempi are perfect.
Josef Krips (1902-1973) was a distinguished conductor of his era, but never held any of the major conducting posts, although e was music director of the London Symphony 1950-1954 and from 1963-1970 led the Buffalo Philharmonic. Krips appeared often at the Metropolitan opera. His recordings include the Beethoven symphonies with the LSO for Everest, the Beethoven piano concertos with Arthur Rubinstein for RCA. Krips also recorded many Mozart symphonies, Schubert’s Symphony No. 9 and Dvorák’s Serenade for Strings with the Concertgebouw. This new set offers four Haydn symphonies, Schubert’s Symphony 6 and Mendelssohn’s Italian, made with the Vienna Philharmonic and LSO 1948-1957.

Composer: Joseph Haydn
Orchestra: Wiener Philharmoniker
Conductor: Josef Krips
Vinyl (1958)
Number of Discs: 1
Format: Flac
Label: Decca
DR-Analysis: DR 13
Size: 937 MB
Scan: yes
Server: FF


Symphonie Nr.94 G-dur “mit dem Paukenschlag”
A1 1. Satz: Adagio cantabile – Vivace assai 6:45
A2 2. Satz: Andante 6:15
A3 3. Satz: Menuett. Allegro molto 5:15
A4 4. Satz: Allegro molto 3:55
Symphonie Nr.99 Es-dur
B1 1. Satz: Adagio – Vivace Assai 6:40
B2 2. Satz Adagio 5:45
B3 3. Satz Menuett. Alegretto 4:50
B4 4. Satz: Vivace 4:00


Analyzed folder: /96k Haydn – Symphonies 94 and 99 – Krips
DR        Peak        RMS        Filename
DR13        -1.62 dB     -19.36 dB     A1 Symphonie Nr.94 G-dur ‘mit dem Paukenschlag’ – 1. Satz- Adagio cantabile – Vivace assai.aif
DR14        -1.33 dB     -21.73 dB     A2 Symphonie Nr.94 G-dur ‘mit dem Paukenschlag’ – 2. Satz- Andante.aif
DR14        -1.81 dB     -19.46 dB     A3 Symphonie Nr.94 G-dur ‘mit dem Paukenschlag’ – 3. Satz- Menuett. Allegro molto.aif
DR13        -0.41 dB     -18.95 dB     A4 Symphonie Nr.94 G-dur ‘mit dem Paukenschlag’ – 4. Satz- Allegro molto.aif
DR13        -0.95 dB     -18.53 dB     B1 Symphonie Nr.99 Es-dur – 1. Satz- Adagio – Vivace Assai.aif
DR13        -2.68 dB     -21.60 dB     B2 Symphonie Nr.99 Es-dur – 2. Satz- Adagio.aif
DR14        -1.94 dB     -20.33 dB     B3 Symphonie Nr.99 Es-dur – 3. Satz Menuett. Alegretto.aif
DR12        -0.26 dB     -18.04 dB     B4 Symphonie Nr.99 Es-dur – 4. Satz- Vivace.aif
Number of files:    8
Official DR value:    DR13


Ripping Info


  • Software: iZotope RX 4 Advanced, Adobe Audition CS 5.5, Twisted Wave 1.9
  • Super light de-clicking with iZotope, significant clicks manually removing, no de-noising
  • DR-Analisys before converting to Flac
  • Converting Wave -> Flac: Twisted Wave 1.9
  • Artwork: Sony Alpha 350, Epson Perfection V750 Pro, Photoshop CS 5.5

If you like what i do, please consider that a little donation would be very appreciate.
I reinvest all donations in maintenance of my rig, for purchasing cleaning solutions and, most important of all, purchasing of new vinyls.
Click on the “Donate”-button.

Thank you very much !

DL from FileFactory

PW: LaWally

13 thoughts on “HD-Vinyl 24/96 (Decca) Joseph Haydn – Symphonies No. 94 & No. 99 (Krips)

  1. Krips is sometimes overlooked but his performances with the LSO and the VPO from this era are always well recorded and very exciting renditions. The Everest recordings of the Beethoven cycle are well worth the detour 🙂
    Thanks Alf 😀

  2. This album is the proof of the correctness of Alf’s and Lemarquis’ estimate of Krips’ work on recording.
    It is stunningly beautiful, Alf.
    Many thanks to you both.

  3. Does the fixed A4 file also have noise artifacts, or am I doing something wrong? Can you please check again, Rach? I downloaded it a 2nd time to make sure. The first noise shows up around 22 secs in, and then between 44 secs and 58 secs there is a sequence of noises.


Leave a Reply