HD-Vinyl 24/96 (DGG) Alban Berg – Wozzeck (Lear, Wunderlich, Fischer-Dieskau, Böhm)

front-small-boxset
Many many thanks to our friend Trottar
This is a great, classic studio recording of Berg’s first opera. I don’t know what I liked about the story, but I immediately loved the Mahlerian score, especially as presented in such a sympathetic recording. The warmth of both Böhm’s conducting and Fischer-Deiskau’s wonderful voice, and the chemistry of the two principles still comes through forty years later. True, Fischer-Deiskau is perhaps too sane and vocally balanced for his part,but his performance is still one of the greatest because of the genius of his vocal coloring. This studio version still holds its own due to the great performers and because the studio mix balances the voices with the orchestra perfectly, allowing us to hear all the vocal parts even in the loudest moments.

Composer: Alban Berg
Performer: Evelyn Lear, Chor Der Deutschen Oper Berlin, Schöneberger Sängerknaben, Gerhard Stolze, Fritz Wunderlich, Dietrich Fischer-Dieskau
Orchestra: Orchester Der Deutschen Oper Berlin
Conductor: Karl Böhm
Vinyl 1965
Number of discs: 2
Format: Flac
Label: DGG
DR-Analysis:
DR 14
Size: 1.85 GB
Scan: yes
Server: FF

———————————————————————————————-
Analyzed folder: /96k Berg – Wozzeck – Dietrich Fischer-Dieskau
———————————————————————————————-
DR        Peak        RMS        Filename
———————————————————————————————-
DR15        -0.51 dB     -20.82 dB     sideA.aif
DR14        -0.51 dB     -20.52 dB     sideB.aif
DR14        -0.65 dB     -19.54 dB     sideC.aif
DR15        -0.54 dB     -21.23 dB     sideD.aif
———————————————————————————————-
Number of files:    4
Official DR value:    DR14
==============================================================================================

Credits

  • Choir – Chor Der Deutschen Oper Berlin, Schöneberger Sängerknaben
  • Composed By – Alban Berg
  • Conductor – Karl Böhm
  • Engineer – Günter Hermanns
  • Libretto By – Georg Büchner
  • Orchestra – Orchester Der Deutschen Oper Berlin
  • Photography By – Max Jacoby
  • Producer – Otto Gerdes
  • Recorded By – Wolfgang Lohse
  • Recording Supervisor – Gustav Rudolf Sellner
  • Vocals [1. Handwerksbursch] – Kurt Böhme
  • Vocals [2. Handwerksbursch] – Robert Koffmane
  • Vocals [Andres] – Fritz Wunderlich
  • Vocals [Der Narr] – Martin Vantin
  • Vocals [Doktor] – Karl Christian Kohn*
  • Vocals [Hauptmann] – Gerhard Stolze
  • Vocals [Margret] – Alice Oelke
  • Vocals [Marie] – Evelyn Lear
  • Vocals [Soldat] – Walter Muggelberg
  • Vocals [Tambourmajor] – Helmut Melchert
  • Vocals [Wozzeck] – Dietrich Fischer-Dieskau

Ripping Info

Monitoring

  • Software: iZotope RX 4 Advanced, Adobe Audition CS 5.5, Twisted Wave 1.9
  • Super light de-clicking with iZotope, significant clicks manually removing, no de-noising
  • DR-Analisys before converting to Flac
  • Converting Wave -> Flac: Twisted Wave 1.9
  • Artwork: Sony Alpha 350, Epson Perfection V750 Pro, Photoshop CS 5.5

DONATION !
If you like what i do, please consider that a little donation would be very appreciated.
I reinvest all donations in maintenance of my rig, for purchasing cleaning solutions and, most important of all, purchasing of new vinyls.
Click on the “Donate”-button.

Thank you very much !

DL from FileFactory

PW: LaWally

10 thoughts on “HD-Vinyl 24/96 (DGG) Alban Berg – Wozzeck (Lear, Wunderlich, Fischer-Dieskau, Böhm)

  1. Alban Berg’s Wozzek is still to day a world wide successful Story of a twelve Tone Opera: The reason is the libretto and the orchestra sound which makes Alban Berg
    uncomparable.-There are dozens of Recordings. The differences are mainly the
    expression singing of the roles of Marie and Wozzek.-I own 9 Wozzek performances and I love this recording best , because all roles were sung by the best singers of our times. On the stage I liked best the Abbado Wozzek with the VPO under the stage direction of Adolf Dresen ( recorded by DG 1986). Trottar

Leave a Reply