HD-Vinyl 24/96 (DGG) Anna Netrebko – Verismo (Pappano)

The lady is a marvel. She seems incapable to do wrong. She has the voice for every one of her selections. Admittedly, Anna Netrebko is the favorite soprano in this household, but I was skeptical about purchasing this album. There were mixed reviews of some of the old standards, and generally I have found that I lose interest in these compilation albums after a playing or two. Not so with this album! Her interpretations are heartfelt and reflect the maturing of her voice into the large and lush instrument it has become. It is a treat to hear her Puccini, and the selections from Manon stand alone very successfully. I enjoy this album over and over. If you are a fan of Anna’s glorious singing, you will too.

Composer: Alfredo Catalani, Amilcare Ponchielli, Arrigo Boito, Francesco Cilea, Giacomo Puccini, Ruggiero Leoncavallo , Umberto Giordano
Performer: Anna Netrebko, Yusif Eyvazov
Orchestra: Orchestra of the Accademia Santa Cecilia Rome
Conductor: Antonio Pappano
Vinyl (2016)
Number of discs: 2
Format: Flac
Label: DGG
DR 12
Size: 1.37 GB
Scan: yes
Server: FF



  Cilea – Adriana Lecouvreur (Act 1)
A1 Ecco: Respiro Appena … Io Son L’umile Ancella 3:43
  Giordano – Andrea Chénier (Act 3)
A2 La Mamma Morta 4:59
  Puccini – Madama Butterfly (Act 2)
A3 Un Bel Dì Vedremo 4:32
  Puccini – Turandot (Act 1)
A4 Signore, Ascolta! 2:39
  Leoncavallo – Pagliacci (Act 1)
A5 Qual Fiamma Avea Nel Guardo! … Stridono Lassù 4:32
  Catalani – La Wally (Act 1)
A6 Ebben? Ne Andrò Lontana 3:55
  Boito – Mefistofele (Act 3)
B1 L’altra Notte In Fondo Al Mare 6:53
  Ponchielli – La Gioconda, Op.9 (Act 4)
B2 Suicidio! In Questi Fieri Momenti 4:35
  Puccini – Tosca (Act 2)
B3 Vissi D’arte, Vissi D’amore 3:27
  Puccini – Turandot (Act 2)
B4 In Questa Reggia 6:12
  Puccini – Manon Lescaut (Act 2)
B5 In Quelle Trine Morbide 2:48
  Puccini – Manon Lescaut (Act 2)
C1 Tutta Su Me Ti Posa 2:56
C2 Manon, Senti, Amor Mio 1:59
C3 Sei Tu Che Piangi? 4:38
C4 Sola, Perduta, Abbandonata 4:25
C5 Fra Le Tue Braccia Amore 6:42


Analyzed folder: /96k Anna Netrebko – Verismo
DR        Peak        RMS        Filename
DR11        -2.64 dB     -19.32 dB     A1 Cilea – Adriana Lecouvreur (Act 1) Ecco- Respiro Appena … Io Son L’umile Ancella.aif
DR12        -1.41 dB     -19.32 dB     A2 Giordano – Andrea Chenier (Act 3) La Mamma Morta.aif
DR11        -2.60 dB     -18.77 dB     A3 Puccini – Madama Butterfly (Act 2) Un Bel Di Vedremo.aif
DR14        -4.08 dB     -22.76 dB     A4 Puccini – Turandot (Act 1) Signore, Ascolta.aif
DR11        -3.40 dB     -19.70 dB     A5 Leoncavallo – Pagliacci (Act 1) Qual Fiamma Avea Nel Guardo … Stridono Lassu’.aif
DR12        -1.29 dB     -19.26 dB     A6 Catalani – La Wally (Act 1) Ebben Ne Andro’ Lontana.aif
DR14        -1.43 dB     -22.02 dB     B1 Boito – Mefistofele (Act 3) L’altra Notte In Fondo Al Mare.aif
DR13        -1.61 dB     -20.89 dB     B2 Ponchielli – La Gioconda, Op.9 (Act 4) Suicidio. In Questi Fieri Momenti.aif
DR12        -3.29 dB     -20.71 dB     B3 Puccini – Tosca (Act 2) Vissi D’arte, Vissi D’amore.aif
DR12        -1.71 dB     -18.18 dB     B4 Puccini – Turandot (Act 2) In Questa Reggia.aif
DR11        -2.12 dB     -19.74 dB     B5 Puccini – Manon Lescaut (Act 2) In Quelle Trine Morbide.aif
DR13        -1.74 dB     -21.42 dB     C1 Puccini – Manon Lescaut (Act 2) Tutta Su Me Ti Posa.aif
DR11        -5.72 dB     -20.96 dB     C2 Puccini – Manon Lescaut (Act 2) Manon, Senti, Amor Mio.aif
DR11        -2.16 dB     -19.51 dB     C3 Puccini – Manon Lescaut (Act 2) Sei Tu Che Piangi.aif
DR12        -0.82 dB     -19.12 dB     C4 Puccini – Manon Lescaut (Act 2) Sola, Perduta, Abbandonata.aif
DR14        -0.81 dB     -20.81 dB     C5 Puccini – Manon Lescaut (Act 2) Fra Le Tue Braccia Amore.aif
Number of files:    16
Official DR value:    DR12



  • Choir – Coro dell’Accademia Nazionale di Santa Cecilia (tracks: 10)
  • Composed By – Alfredo Catalani (tracks: 6), Amilcare Ponchielli (tracks: 8), Arrigo Boito (tracks: 7), Francesco Cilea (tracks: 1), Giacomo Puccini (tracks: 3, 4, 9 to 16), Ruggiero Leoncavallo (tracks: 5), Umberto Giordano (tracks: 2)
  • Conductor – Antonio Pappano
  • Engineer – Philip Krause, Stephan Flock
  • Executive Producer – Ute Fesquet
  • Orchestra – Orchestra dell’Accademia Nazionale di Santa Cecilia
  • Photography By – Harald Hoffmann
  • Producer – Sid McLauchlan
  • Soprano Vocals – Anna Netrebko
  • Tenor Vocals – Yusif Eyvazov (tracks: 10, 12 to 14, 16)
Recordings: Auditorium Parco della Musica, Sala Santa Cecilia, Roma, Italy, 7 & 10/2015; 6/2016
3-side 180g heavyweight vinyl pressing

Ripping Info


  • Software: iZotope RX 4 Advanced, Adobe Audition CS 5.5, Twisted Wave 1.9
  • Super light de-clicking with iZotope, significant clicks manually removing, no de-noising
  • DR-Analisys before converting to Flac
  • Converting Wave -> Flac: Twisted Wave 1.9
  • Artwork: Sony Alpha 350, Epson Perfection V750 Pro, Photoshop CS 5.5

If you like what i do, please consider that a little donation would be very appreciated.
I reinvest all donations in maintenance of my rig, for purchasing cleaning solutions and, most important of all, purchasing of new vinyls.
Click on the “Donate”-button.

Thank you very much !

DL from FileFactory

PW: LaWally

11 thoughts on “HD-Vinyl 24/96 (DGG) Anna Netrebko – Verismo (Pappano)

  1. HI Rach, that is a gem indeed. Did not know her, but she is going straight to my top list. One question, many years ago, you have uploaded a tape recording you made form arias from a chinese tenor, deng. I have managed to get the CD. Still love it after all those years. If you are interested, I can send you the files. Let me know.

  2. Thanks.
    Anna Netrebko sings so beautiful that the hairs on your body rises.
    You even have your password included in track 6 “Catalani – La Wally (Act 1)”.

Leave a Reply