HD-Vinyl 24/96 (DGG) Johannes Brahms – Piano Concerto No. 2 (Anda/Karajan)

front-small-boxset
There is a real electricity in the Brahms interpretion of Geza Anda’s….his sense of pulse and drive really underly the incredible virtuosity of the Berlin Philharmonic. The opening movement moves along at the hectic pace but with some really urgent dramatic high points especially in the development section. Karajan really alots a very special role to the brass in this movement and the inspired playing is a joy…as to the cello solo at the opening of the third movement it is given a really fine treatment by Mr. Finke…then principal of the Berlin Phil. As to the Finale it has a nice relaxed sense of wonder without the hectic nature other conductors ascribe to Brahms here…I really think that this is one of the finest recordings of any music made anywhere.

Composer: Johannes Brahms
Performer: Geza Anda
OrchestraBerlin Philharmonic Orchestra
Conductor: Herbert von Karajan
Vinyl 1968(1984)
Number of discs: 1
Format: Flac
Label: DGG
DR-Analysis:
DR 14
Size: 967 MB
Scan: yes
Server: FF

 

Tracklist

  Konzert Für Klavier Und Orchester Nr.2 B-Dur Op.83  
A1 Allegro Non Troppo 17:34
A2 Allegro Appassionato 9:04
B1 Andante 12:40
B2 Allegretto Grazioso 9:46

———————————————————————————————-
Analyzed folder: /96k Brahms – Piano Concerto No. 2 – Anda, Karajan
———————————————————————————————-
DR        Peak        RMS        Filename
———————————————————————————————-
DR14        -0.75 dB     -20.05 dB     A1 Konzert Fuer Klavier Und Orchester Nr.2 B-Dur Op.83 – Allegro Non Troppo.aif
DR13        -1.08 dB     -18.65 dB     A2 Konzert Fuer Klavier Und Orchester Nr.2 B-Dur Op.83 – Allegro Appassionato.aif
DR15        -2.45 dB     -25.39 dB     B1 Konzert Fuer Klavier Und Orchester Nr.2 B-Dur Op.83 – Andante.aif
DR13        -0.59 dB     -19.63 dB     B2 Konzert Fuer Klavier Und Orchester Nr.2 B-Dur Op.83 – Allegretto Grazioso.aif
———————————————————————————————-
Number of files:    4
Official DR value:    DR14
==============================================================================================

 

Credits

  • Cello [Solo-cello] – Eberhard Finke
  • Composed By – Johannes Brahms
  • Conductor – Herbert von Karajan
  • Liner Notes – Constantin Floros
  • Orchestra – Berliner Philharmoniker
  • Photography By – Siegfried Lauterwasser
  • Piano – Géza Anda
  • Producer – Otto Gerdes
  • Recorded By – Günter Hermanns
  • Recording Supervisor – Hans Weber

 

Ripping Info

Monitoring

  • Software: iZotope RX 4 Advanced, Adobe Audition CS 5.5, Twisted Wave 1.9
  • Super light de-clicking with iZotope, significant clicks manually removing, no de-noising
  • DR-Analisys before converting to Flac
  • Converting Wave -> Flac: Twisted Wave 1.9
  • Artwork: Sony Alpha 350, Epson Perfection V750 Pro, Photoshop CS 5.5

DONATION !
If you like what i do, please consider that a little donation would be very appreciated.
I reinvest all donations in maintenance of my rig, for purchasing cleaning solutions and, most important of all, purchasing of new vinyls.
Click on the “Donate”-button.

Thank you very much !

DL from FileFactory

PW: LaWally

14 thoughts on “HD-Vinyl 24/96 (DGG) Johannes Brahms – Piano Concerto No. 2 (Anda/Karajan)”

Leave a Reply