HD-Vinyl 24/96 (DGG) Ludwig van Beethoven – 200 Years Edition, Box 8, Piano Works (14 LPs)

front-small-boxset08
This is Box No. 8 of the Bicentennial Beethoven Collection, published by Deutsche Grammophon 1970, to celebrate Beethoven’s 200th birthday with all his works on 12 Box-Sets/75 LPs.
In the last years I spent only for this Beethoven Edition around 500-550 EUR. If you think and feel, you want to contribute, any donation will be welcome. Thank you!

Composer: Ludwig van Beethoven
Performer: Geza Anda, Wilhelm Kempff, Jörg Demus, Norman Shetler
Number of Discs: 14/75
Format: Flac
Label: Deutsche Grammophon Gesellschaft
DR-Analysis: DR 16
Size: 13.77 GB
Scan: yes
Server: FileFactory

 

PLEASE, PAY ATTENTION:

Only after ripping the first two records I saw that one of the 14 records is missing, the record No. 3. Instead of this, the record No. 2 is twice in the box. The missed Sonatas were No. 5, No. 6 and No. 7 (tracks E1-F4). Since the box was sealed, it is clearly an error on the side of DGG, an error by DGG occurred in 1970 (sigh!).

Anyway, I could manage to get the official digital HD-tracks in 24/96, but missing the 1st mov. of Sonata No. 5 (E1). I took this missing 1st mov. from another box I own, with complete Sonatas, played by the magnificent Friedrich Gulda.

Maybe you will notice a little sonic difference on these three Sonatas, compared with the rest of the box. Even more when you listen to the 1st mov. of Sonata No. 5 beeing there another pianist, another piano, other recording situation and equipment.

Hope you enjoy it anyway.

EDIT Feb. 18th 2017

With many thanks to polarsy I have now also the 1st mov. of Sonata No. 5 played by Wilhelm Kempff, which was formerly replaced by the same music, played by Friedrich Gulda.

The track E1 is now available and can be DLed. Please replace the old E1 with this new one.

 

Tracklist

  Klaviersonate Nr. 1 F-Moll Op. 2 Nr. 1
A1 1. Satz: Allegro  
A2 2. Satz: Adagio  
A3 3. Satz: Menuetto. Allegretto  
A4 4. Satz: Prestissimo  
  Klaviersonate Nr. 19 G-Moll Op. 49 Nr. 1
A5 1. Satz: Andante  
A6 2. Satz: Allegro  
  Klaviersonate Nr. 12 As-Dur Op. 26
B1 1. Satz: Andante Con Variazioni  
B2 2. Satz: Scherzo. Allegro Molto  
B3 3. Satz: Marcia Funebre  
B4 4. Satz: Allegro  
  Klaviersonate Nr. 20 G-Dur Op. 49 Nr. 2
B5 1. Satz: Allegro, Ma Non Troppo  
B6 2. Satz: Tempo Di Menuetto  
  Klaviersonate Nr. 2 A-Dur Op. 2 Nr. 2
C1 1. Satz: Allegro Vivace  
C2 2. Satz: Largo Appassionato  
C3 3. Satz: Scherzo. Allegretto  
C4 4. Satz: Rondo. Grazioso  
  Klaviersonate Nr. 3 C-Dur Op. 2 Nr. 3
D1 1. Satz: Allegro Con Brio  
D2 2. Satz: Adagio  
D3 3. Satz: Scherzo. Allegro  
D4 4. Satz: Allegro Assai  
  Klaviersonate Nr. 5 C-Moll Op. 10 Nr. 1
E1 1. Satz: Allegro Molto E Con Brio  
E2 2. Satz: Adagio Molto  
E3 3. Satz: Finale. Prestissimo  
  Klaviersonate Nr. 6 F-Dur Op. 10 Nr. 2
E4 1. Satz: Allegro  
E5 2. Satz: Allegretto  
E6 3. Satz: Presto  
  Klaviersonate Nr. 7 D-Dur Op. 10 Nr. 3
F1 1. Satz: Presto  
F2 2. Satz: Largo E Mesto  
F3 3. Satz: Menuetto. Allegro  
F4 4. Satz: Rondo. Allegro  
  Klaviersonate Nr. 4 Es-Dur Op. 7
G1 1. Satz: Allegro Molto E Con Brio  
G2 2. Satz: Largo, Con Gran Espressione  
G3 3. Satz: Allegro  
G4 4. Satz: Rondo. Poco Allegretto E Grazioso  
  Klaviersonate Nr. 9 E-Dur Op. 14 Nr.1
H1 1. Satz: Allegro  
H2 2. Satz: Allegretto  
H3 3. Satz: Rondo. Allegro Comodo  
  Klaviersonate Nr. 10 G-Dur Op. 14 Nr. 2
H4 1. Satz: Allegro  
H5 2. Satz: Andante  
H6 3. Satz: Scherzo. Allegro Assai  
  Klaviersonate Nr. 11 B-Dur Op. 22
I1 1. Satz: Allegro Con Brio  
I2 2. Satz: Adagio Con Molta Espressione  
I3 3. Satz: Menuetto  
I4 4. Satz: Rondo. Allegretto  
  Klaviersonate Nr. 13 Es-Dur Op. 27 Nr. 1
J1 1. Satz: Andante – Allegro  
J2 2. Satz: Allegro Molto E Vivace  
J3 3. Satz: Adagio Con Espressione  
J4 4. Satz: Allegro Vivace  
  Klaviersonate Nr. 27 E-Moll Op. 90
J5 1. Satz: Mit Lebhaftigkeit Und Durchaus Mit Empfindung Und Ausdruck  
J6 2. Satz: Nicht Zu Geschwind Und Sehr Singbar Vorzutragen  
  Klaviersonate Nr. 16 G-Dur Op. 31 Nr. 1
K1 1. Satz: Allegro Vivace  
K2 2. Satz: Adagio Grazioso  
K3 3. Satz: Rondo Allegretto  
  Klaviersonate Nr. 18 Es-Dur Op. 31 Nr. 3
K4 1. Satz: Allegro  
L1 2. Satz: Scherzo. Allegretto Vivace  
L2 3. Satz: Menuetto. Moderato E Grazioso  
L3 4. Satz: Presto Con Fuoco  
  Klaviersonate Nr. 22 F-Dur Op. 54
L4 1. Satz: In Tempo D’un Menuetto  
L5 2. Satz: Allegretto  
  Klaviersonate Nr. 8. C-Moll Op. 13 “Pathetique”
M1 1. Satz: Grave – Allegro Di Molto E Con Brio  
M2 2. Satz: Adagio Cantabile  
M3 3. Satz: Rondo. Allegro  
  Klaviersonate Nr. 14 Cis-Moll Op. 27 Nr. 2 “Mondschein-Sonate”
M4 1. Satz: Adagio Sostenuto  
M5 2. Satz: Allegretto  
M6 3. Satz: Presto Agitato  
  Klaviersonate Nr. 15 D-Dur Op. 28 “Pastorale”
N1 1. Satz: Allegro  
N2 2. Satz: Andante  
N3 3. Satz: Scherzo. Allegro Vivace  
N4 4. Satz: Rondo. Allegro, Ma Non Troppo  
  Klaviersonate Nr. 24 Fis-Dur Op. 78
N5 1. Satz: Adagio Cantabile – Allegro Ma Non Troppo  
N6 2. Satz: Allegro Vivace  
  Klaviersonate Nr. 17 D-Moll Op. 31 Nr. 2 “Der Sturm”
O1 1. Satz: Largo – Allegro  
O2 2. Satz: Adagio  
O3 3. Satz: Allegretto  
  Klaviersonate Nr. 26 Es-Dur Op. 81a “Les Adieux”
O4 1. Satz: Das Lebewohl (Les Adieux) Adagio – Allegro  
P1 2. Satz: Abwesenheit (L’absence) Andante Espressivo  
P2 3. Satz: Das Wiedersehen (Le Retour) Vivacissimamente  
  Klaviersonate Nr. 28 A-Dur Op. 101
P3 1. Satz: Etwas Lebhafter Und Mit Der Innigsten Empfindung. Allegretto Ma Non Troppo  
P4 2. Satz: Lebhaft, Marschmäßig. Vivace Alla Marcia.  
P5 3. Satz: Langsam Und Sehnsuchtsvoll. Adagio, Ma Non Troppo. Con Affetto  
P6 4. Satz: Geschwinde, Doch Nicht Zu Sehr Und Mit Entschlossenheit. Allegro  
  Klaviersonate Nr. 21 C-Dur Op. 53 “Waldstein-Sonate”
Q1 1. Satz: Allegro Con Brio  
Q2 2. Satz: Introduzione Adagio Molto – Attacca  
Q3 3. Satz: Rondo. Allegretto Moderato – Prestissimo  
  Klaviersonate Nr. 25 G-Dur Op. 79
Q4 1. Satz: Presto Alla Tedesca  
Q5 2. Satz: Andante  
Q6 3. Satz: Vivace  
  Klaviersonate Nr. 23 F-Moll Op. 57 “Appassionata”
R1 1. Satz: Allegro Assai  
R2 2. Satz: Andante Con Moto – Attacca  
R3 3. Satz: Allegro Ma Non Troppo  
  Klaviersonate Nr. 29 B-Dur Op. 106 Sonate Für Das Hammerklavier
S1 1. Satz: Allegro  
S2 2. Satz: Scherzo Assai Vivace – Presto  
S3 3. Satz: Adagio Sostenuto Appassionato E Con Molto Sentimento  
T1 4. Satz: Largo – Allegro Risoluto  
  Klaviersonate Nr. 30 E-Dur Op. 109
T2 1. Satz:Vivace Ma Non Troppo – Adagio Espressivo  
T3 2. Satz: Prestissimo  
T4 3. Satz: Gesangvoll Mit Innigster Empfindung (Andante Molto Cantabile Ed Espressivo)  
  Klaviersonate Nr. 31 As-Dur Op. 110
U1 1. Satz: Moderato Cantabile Molto Espressivo  
U2 2. Satz: Allegro Molto  
U3 3. Satz: Adagio, Ma Non Troppo – Fuga. Allegro, Ma Non Troppo  
  Klaviersonate Nr. 32 C-Moll Op. 111
V1 1. Satz: Maestoso – Allegro Con Brio Es Appassionato  
V2 2. Satz: Arietta Molto Semplice E Cantabile  
  6 Bagatellen Op. 126
W1 Andante Con Moto Cantabile E Compiacevole  
W2 Allegro  
W3 Anadnte Cantabile E Grazioso  
W4 Presto  
W5 Quasi Allegretto  
W6 Presto – Andante Amabile E Con Moto  
W7 6 Ecossaisen Es-Dur Wo0 83  
  Rondo A Capriccio G-Dur Op. 129 “Die Wut Über Den Verlorenen Groschen”
W8 Allegro Vivace  
  Albumblatt “Für Elise” A-Moll Wo0 59
W9 Poco Moto  
  Andante Favori F-Dur Wo0 57
X1 Andante Grazioso Con Moto  
  Rondo C-Dur Op. 51 Nr. 1
X2 Moderato E Grazioso  
  Rondo G-Dur Op. 51 Nr. 2
X3 Andante Cantabile E Grazioso  
X4 6. Variationen G-Dur Über Das Duett “Nel Cor Piu Non Mi Sento” Aus Der Oper “La Molinara” Von Givanni Paisiello Wo0 70  
  33 Variationen Über Einen Walzer Von Anton Diabelli Für Klavier C-Dur Op. 120
Y Teil 1: Thema – Variationen I – XXI  
Z Teil 2: Variationen XXII – XXXIII  
  8 Variationen Für Klavier Zu Vier Händen Über Ein Thema Des Grafen Waldstein C-Dur Wo0 67
AA1 Thema. Andante Con Moto – Variationen I – VIII  
  Sonate Für Klavier Zu Vier Händen D-Dur Pp. 6
AA2 1. Satz: Allegro Molto  
AA3 2. Satz: Rondo Moderato  
  “Ich Denke Dein” Lied D-Dur Mit 6 Variationen Für Klavier Zu Vier Händen Wo0 74
AA4 Andantino Cantabile – Variationen I – VI Coda  
  Drei Märsche Für Klavier Zu Vier Händen Op. 45
AA5 1. C-Dur. Allegro Ma Non Troppo – Trio  
BB1 2. Es-Dur Vivace – Trio  
BB2 3. D-Dur Vivace  
BB3 Große Fuge B-Dur Für Klavier Zu Vier Händen Op. 134

 

———————————————————————————————-
 Analyzed folder: /96k LvB – Works For Piano – Kempff, Anda, Shetler, Demus
———————————————————————————————-
 DR        Peak        RMS        Filename
———————————————————————————————-
 DR15        -2.11 dB     -22.28 dB     A1 Klaviersonate Nr. 1 F-Moll Op. 2 Nr. 1 – 1. Satz- Allegro.aif
 DR17        -4.19 dB     -27.25 dB     A2 Klaviersonate Nr. 1 F-Moll Op. 2 Nr. 1 – 2. Satz- Adagio.aif
 DR14        -2.43 dB     -23.02 dB     A3 Klaviersonate Nr. 1 F-Moll Op. 2 Nr. 1 – 3. Satz- Menuetto. Allegretto.aif
 DR15        -1.05 dB     -20.57 dB     A4 Klaviersonate Nr. 1 F-Moll Op. 2 Nr. 1 – 4. Satz- Prestissimo.aif
 DR14        -7.29 dB     -27.78 dB     A5 Klaviersonate Nr. 19 G-Moll Op. 49 Nr. 1 – 1. Satz- Andante.aif
 DR13        -3.14 dB     -26.40 dB     A6 Klaviersonate Nr. 19 G-Moll Op. 49 Nr. 1 – 2. Satz- Allegro.aif
 DR16        -4.15 dB     -25.35 dB     B1 Klaviersonate Nr. 12 As-Dur Op. 26 – 1. Satz- Andante Con Variazioni.aif
 DR16        -1.93 dB     -22.91 dB     B2 Klaviersonate Nr. 12 As-Dur Op. 26 – 2. Satz- Scherzo. Allegro Molto.aif
 DR16        -1.25 dB     -23.39 dB     B3 Klaviersonate Nr. 12 As-Dur Op. 26 – 3. Satz- Marcia Funebre.aif
 DR15        -1.24 dB     -22.34 dB     B4 Klaviersonate Nr. 12 As-Dur Op. 26 – 4. Satz- Allegro.aif
 DR16        -3.39 dB     -24.48 dB     B5 Klaviersonate Nr. 20 G-Dur Op. 49 Nr. 2 – 1. Satz- Allegro, Ma Non Troppo.aif
 DR14        -6.23 dB     -25.30 dB     B6 Klaviersonate Nr. 20 G-Dur Op. 49 Nr. 2 – 2. Satz- Tempo Di Menuetto.aif
 DR13        -1.21 dB     -20.08 dB     C1 Klaviersonate Nr. 2 A-Dur Op. 2 Nr. 2 – 1. Satz- Allegro Vivace.aif
 DR17        -3.09 dB     -26.76 dB     C2 Klaviersonate Nr. 2 A-Dur Op. 2 Nr. 2 – 2. Satz- Largo Appassionato.aif
 DR14        -2.59 dB     -22.19 dB     C3 Klaviersonate Nr. 2 A-Dur Op. 2 Nr. 2 – 3. Satz- Scherzo. Allegretto.aif
 DR13        -2.62 dB     -20.96 dB     C4 Klaviersonate Nr. 2 A-Dur Op. 2 Nr. 2 – 4. Satz- Rondo. Grazioso.aif
 DR13        -2.93 dB     -20.67 dB     D1 Klaviersonate Nr. 3 C-Dur Op. 2 Nr. 3 – 1. Satz- Allegro Con Brio.aif
 DR17        -4.46 dB     -27.62 dB     D2 Klaviersonate Nr. 3 C-Dur Op. 2 Nr. 3 – 2. Satz- Adagio.aif
 DR15        -2.79 dB     -22.48 dB     D3 Klaviersonate Nr. 3 C-Dur Op. 2 Nr. 3 – 3. Satz- Scherzo. Allegro.aif
 DR14        -1.79 dB     -21.77 dB     D4 Klaviersonate Nr. 3 C-Dur Op. 2 Nr. 3 – 4. Satz- Allegro Assai.aif
 DR11        -1.64 dB     -16.04 dB     E1 Klaviersonate Nr. 5 C-Moll, Op.10 Nr.1 – 1. Allegro Molto E Con Brio.aif
 DR17        -5.69 dB     -28.69 dB     E2 Klaviersonate Nr. 5 C-Moll, Op.10 Nr.1 – 2. Adagio Molto.aif
 DR14        -1.36 dB     -21.13 dB     E3 Klaviersonate Nr. 5 C-Moll Op. 10 Nr. 1 – 3. Finale (Prestissimo).aif
 DR14        -3.79 dB     -22.13 dB     E4 Klaviersonate Nr. 6 F-Dur Op. 10 Nr. 2 – 1. Allegro.aif
 DR15        -3.48 dB     -25.30 dB     E5 Klaviersonate Nr. 6 F-Dur Op. 10 Nr. 2 – 2. Allegretto.aif
 DR14        -2.83 dB     -21.43 dB     E6 Klaviersonate Nr. 6 F-Dur Op. 10 Nr. 2 – 3. Presto.aif
 DR15        -0.77 dB     -20.52 dB     F1 Klaviersonate Nr. 7 D-Dur Op. 10 Nr. 3 – 1. Presto.aif
 DR16        -1.66 dB     -24.61 dB     F2 Klaviersonate Nr. 7 D-Dur Op. 10 Nr. 3 – 2. Largo e mesto.aif
 DR13        -4.31 dB     -23.42 dB     F3 Klaviersonate Nr. 7 D-Dur Op. 10 Nr. 3 – 3. Menuetto (Allegro).aif
 DR13        -2.23 dB     -20.68 dB     F4 Klaviersonate Nr. 7 D-Dur Op. 10 Nr. 3 – 4. Rondo (Allegro).aif
 DR16        -1.40 dB     -22.31 dB     G1 Klaviersonate Nr. 4 Es-Dur Op. 7 – 1. Satz- Allegro Molto E Con Brio.aif
 DR18        -2.63 dB     -26.73 dB     G2 Klaviersonate Nr. 4 Es-Dur Op. 7 – 2. Satz- Largo, Con Gran Espressione.aif
 DR14        -2.94 dB     -23.42 dB     G3 Klaviersonate Nr. 4 Es-Dur Op. 7 – 3. Satz- Allegro.aif
 DR16        -1.83 dB     -22.42 dB     G4 Klaviersonate Nr. 4 Es-Dur Op. 7 – 4. Satz- Rondo. Poco Allegretto E Grazioso.aif
 DR16        -1.49 dB     -23.94 dB     H1 Klaviersonate Nr. 9 E-Dur Op. 14 Nr.1 – 1. Satz- Allegro.aif
 DR16        -4.77 dB     -26.29 dB     H2 Klaviersonate Nr. 9 E-Dur Op. 14 Nr.1 – 2. Satz- Allegretto.aif
 DR14        -2.82 dB     -22.88 dB     H3 Klaviersonate Nr. 9 E-Dur Op. 14 Nr.1 – 3. Satz- Rondo. Allegro Comodo.aif
 DR14        -5.91 dB     -24.54 dB     H4 Klaviersonate Nr. 10 G-Dur Op. 14 Nr. 2 – 1. Satz- Allegro.aif
 DR16        -1.75 dB     -26.62 dB     H5 Klaviersonate Nr. 10 G-Dur Op. 14 Nr. 2 – 2. Satz- Andante.aif
 DR15        -3.00 dB     -22.96 dB     H6 Klaviersonate Nr. 10 G-Dur Op. 14 Nr. 2 – 3. Satz- Scherzo. Allegro Assai.aif
 DR14        -1.20 dB     -20.11 dB     I1 Klaviersonate Nr. 11 B-Dur Op. 22 – 1. Satz- Allegro Con Brio.aif
 DR15        -4.80 dB     -26.28 dB     I2 Klaviersonate Nr. 11 B-Dur Op. 22 – 2. Satz- Adagio Con Molta Espressione.aif
 DR15        -2.06 dB     -20.95 dB     I3 Klaviersonate Nr. 11 B-Dur Op. 22 – 3. Satz- Menuetto.aif
 DR14        -2.29 dB     -21.06 dB     I4 Klaviersonate Nr. 11 B-Dur Op. 22 – 4. Satz- Rondo. Allegretto.aif
 DR17        -2.15 dB     -24.45 dB     J1 Klaviersonate Nr. 13 Es-Dur Op. 27 Nr. 1 – 1. Satz- Andante – Allegro.aif
 DR12        -2.21 dB     -19.96 dB     J2 Klaviersonate Nr. 13 Es-Dur Op. 27 Nr. 1 – 2. Satz- Allegro Molto E Vivace.aif
 DR13        -5.60 dB     -24.70 dB     J3 Klaviersonate Nr. 13 Es-Dur Op. 27 Nr. 1 – 3. Satz- Adagio Con Espressione.aif
 DR14        -1.53 dB     -19.80 dB     J4 Klaviersonate Nr. 13 Es-Dur Op. 27 Nr. 1 – 4. Satz- Allegro Vivace.aif
 DR14        -1.79 dB     -21.46 dB     J5 Klaviersonate Nr. 27 E-Moll Op. 90 – 1. Satz- Mit Lebhaftigkeit Und Durchaus Mit Empfindung Und Ausdruck.aif
 DR17        -2.39 dB     -24.46 dB     J6 Klaviersonate Nr. 27 E-Moll Op. 90 – 2. Satz- Nicht Zu Geschwind Und Sehr Singbar Vorzutragen.aif
 DR15        -2.71 dB     -23.26 dB     K1 Klaviersonate Nr. 16 G-Dur Op. 31 Nr. 1 – 1. Satz- Allegro Vivace.aif
 DR15        -7.06 dB     -28.01 dB     K2 Klaviersonate Nr. 16 G-Dur Op. 31 Nr. 1 – 2. Satz- Adagio Grazioso.aif
 DR15        -1.68 dB     -22.27 dB     K3 Klaviersonate Nr. 16 G-Dur Op. 31 Nr. 1 – 3. Satz- Rondo Allegretto.aif
 DR16        -1.95 dB     -24.47 dB     K4 Klaviersonate Nr. 18 Es-Dur Op. 31 Nr. 3 – 1. Satz- Allegro.aif
 DR18        -1.44 dB     -24.78 dB     L1 Klaviersonate Nr. 18 Es-Dur Op. 31 Nr. 3 – 2. Satz- Scherzo. Allegretto Vivace.aif
 DR17        -3.05 dB     -25.65 dB     L2 Klaviersonate Nr. 18 Es-Dur Op. 31 Nr. 3 – 3. Satz- Menuetto. Moderato E Grazioso.aif
 DR14        -1.07 dB     -19.92 dB     L3 Klaviersonate Nr. 18 Es-Dur Op. 31 Nr. 3 – 4. Satz- Presto Con Fuoco.aif
 DR14        -2.36 dB     -22.67 dB     L4 Klaviersonate Nr. 22 F-Dur Op. 54 – 1. Satz- In Tempo D’un Menuetto.aif
 DR14        -2.57 dB     -21.75 dB     L5 Klaviersonate Nr. 22 F-Dur Op. 54 – 2. Satz- Allegretto.aif
 DR15        -1.41 dB     -21.23 dB     M1 Klaviersonate Nr. 8. C-Moll Op. 13 ‘Pathetique’ – 1. Satz- Grave – Allegro Di Molto E Con Brio.aif
 DR19        -3.85 dB     -28.70 dB     M2 Klaviersonate Nr. 8. C-Moll Op. 13 ‘Pathetique’ – 2. Satz- Adagio Cantabile.aif
 DR14        -2.00 dB     -20.97 dB     M3 Klaviersonate Nr. 8. C-Moll Op. 13 ‘Pathetique’ – 3. Satz- Rondo. Allegro.aif
 DR16        -14.02 dB     -34.92 dB     M4 Klaviersonate Nr. 14 Cis-Moll Op. 27 Nr. 2 ‘Mondschein-Sonate’ – 1. Satz- Adagio Sostenuto.aif
 DR14        -6.30 dB     -24.85 dB     M5 Klaviersonate Nr. 14 Cis-Moll Op. 27 Nr. 2 ‘Mondschein-Sonate’ – 2. Satz- Allegretto.aif
 DR15        -1.78 dB     -20.95 dB     M6 Klaviersonate Nr. 14 Cis-Moll Op. 27 Nr. 2 ‘Mondschein-Sonate’ – 3. Satz- Presto Agitato.aif
 DR15        -2.00 dB     -22.03 dB     N1 Klaviersonate Nr. 15 D-Dur Op. 28 ‘Pastorale’ – 1. Satz- Allegro.aif
 DR14        -3.67 dB     -23.43 dB     N2 Klaviersonate Nr. 15 D-Dur Op. 28 ‘Pastorale’ – 2. Satz- Andante.aif
 DR16        -2.29 dB     -23.36 dB     N3 Klaviersonate Nr. 15 D-Dur Op. 28 ‘Pastorale’ – 3. Satz- Scherzo. Allegro Vivace.aif
 DR13        -1.40 dB     -20.39 dB     N4 Klaviersonate Nr. 15 D-Dur Op. 28 ‘Pastorale’ – 4. Satz- Rondo. Allegro, Ma Non Troppo.aif
 DR15        -2.31 dB     -22.61 dB     N5 Klaviersonate Nr. 24 Fis-Dur Op. 78 – 1. Satz- Adagio Cantabile – Allegro Ma Non Troppo.aif
 DR14        -0.59 dB     -20.55 dB     N6 Klaviersonate Nr. 24 Fis-Dur Op. 78 – 2. Satz- Allegro Vivace.aif
 DR15        -2.08 dB     -23.00 dB     O1 Klaviersonate Nr. 17 D-Moll Op. 31 Nr. 2 ‘Der Sturm’ – 1. Satz- Largo – Allegro.aif
 DR17        -8.04 dB     -30.44 dB     O2 Klaviersonate Nr. 17 D-Moll Op. 31 Nr. 2 ‘Der Sturm’ – 2. Satz- Adagio.aif
 DR16        -1.33 dB     -22.27 dB     O3 Klaviersonate Nr. 17 D-Moll Op. 31 Nr. 2 ‘Der Sturm’ – 3. Satz- Allegretto.aif
 DR17        -1.50 dB     -23.78 dB     O4 Klaviersonate Nr. 26 Es-Dur Op. 81a ‘Les Adieux’ – 1. Satz- Das Lebewohl (Les Adieux) Adagio – Allegro.aif
 DR16        -3.14 dB     -25.72 dB     P1 Klaviersonate Nr. 26 Es-Dur Op. 81a ‘Les Adieux’ – 2. Satz- Abwesenheit (L’absence) Andante Espressivo.aif
 DR13        -1.82 dB     -18.79 dB     P2 Klaviersonate Nr. 26 Es-Dur Op. 81a ‘Les Adieux’ – 3. Satz- Das Wiedersehen (Le Retour) Vivacissimamente.aif
 DR16        -2.94 dB     -25.44 dB     P3 Klaviersonate Nr. 28 A-Dur Op. 101 – 1. Satz- Etwas Lebhafter Und Mit Der Innigsten Empfindung. Allegretto Ma Non Troppo.aif
 DR15        -1.14 dB     -21.48 dB     P4 Klaviersonate Nr. 28 A-Dur Op. 101 – 2. Satz- Lebhaft, Marschmaessig. Vivace Alla Marcia.aif
 DR14        -1.86 dB     -25.53 dB     P5 Klaviersonate Nr. 28 A-Dur Op. 101 – 3. Satz- Langsam Und Sehnsuchtsvoll. Adagio, Ma Non Troppo. Con Affetto.aif
 DR15        -0.80 dB     -21.39 dB     P6 Klaviersonate Nr. 28 A-Dur Op. 101 – 4. Satz- Geschwinde, Doch Nicht Zu Sehr Und Mit Entschlossenheit. Allegro.aif
 DR14        -2.32 dB     -23.29 dB     Q1 Klaviersonate Nr. 21 C-Dur Op. 53 ‘Waldstein-Sonate’ – 1. Satz- Allegro Con Brio.aif
 DR14        -10.38 dB     -31.38 dB     Q2 Klaviersonate Nr. 21 C-Dur Op. 53 ‘Waldstein-Sonate’ – 2. Satz- Introduzione Adagio Molto – Attacca.aif
 DR15        -1.44 dB     -20.96 dB     Q3 Klaviersonate Nr. 21 C-Dur Op. 53 ‘Waldstein-Sonate’ – 3. Satz- Rondo. Allegretto Moderato – Prestissimo.aif
 DR14        -2.62 dB     -21.41 dB     Q4 Klaviersonate Nr. 25 G-Dur Op. 79 – 1. Satz- Presto Alla Tedesca.aif
 DR14        -10.39 dB     -29.58 dB     Q5 Klaviersonate Nr. 25 G-Dur Op. 79 – 2. Satz- Andante.aif
 DR14        -3.97 dB     -22.88 dB     Q6 Klaviersonate Nr. 25 G-Dur Op. 79 – 3. Satz- Vivace.aif
 DR14        -1.32 dB     -21.15 dB     R1 Klaviersonate Nr. 23 F-Moll Op. 57 ‘Appassionata’ – 1. Satz- Allegro Assai.aif
 DR17        -3.17 dB     -26.61 dB     R2 Klaviersonate Nr. 23 F-Moll Op. 57 ‘Appassionata’ – 2. Satz- Andante Con Moto – Attacca.aif
 DR14        -1.46 dB     -19.69 dB     R3 Klaviersonate Nr. 23 F-Moll Op. 57 ‘Appassionata’ – 3. Satz- Allegro Ma Non Troppo.aif
 DR12        -0.88 dB     -17.78 dB     S1 Klaviersonate Nr. 29 B-Dur Op. 106 Sonate Fuer Das Hammerklavier – 1. Satz- Allegro.aif
 DR12        -2.02 dB     -20.28 dB     S2 Klaviersonate Nr. 29 B-Dur Op. 106 Sonate Fuer Das Hammerklavier – 2. Satz- Scherzo Assai Vivace – Presto.aif
 DR16        -3.62 dB     -25.97 dB     S3 Klaviersonate Nr. 29 B-Dur Op. 106 Sonate Fuer Das Hammerklavier – 3. Satz- Adagio Sostenuto Appassionato E Con Molto Sentimento.aif
 DR13        -0.93 dB     -17.52 dB     T1 Klaviersonate Nr. 29 B-Dur Op. 106 Sonate Fuer Das Hammerklavier – 4. Satz- Largo – Allegro Risoluto.aif
 DR13        -3.10 dB     -20.87 dB     T2 Klaviersonate Nr. 30 E-Dur Op. 109 – 1. Satz-Vivace Ma Non Troppo – Adagio Espressivo.aif
 DR11        -1.34 dB     -17.41 dB     T3 Klaviersonate Nr. 30 E-Dur Op. 109 – 2. Satz- Prestissimo.aif
 DR13        -2.33 dB     -21.74 dB     T4 Klaviersonate Nr. 30 E-Dur Op. 109 – 3. Satz- Gesangvoll Mit Innigster Empfindung (Andante Molto Cantabile Ed Espressivo).aif
 DR13        -5.57 dB     -23.48 dB     U1 Klaviersonate Nr. 31 As-Dur Op. 110 – 1. Satz- Moderato Cantabile Molto Espressivo.aif
 DR11        -1.81 dB     -17.78 dB     U2 Klaviersonate Nr. 31 As-Dur Op. 110 – 2. Satz- Allegro Molto.aif
 DR13        -1.20 dB     -20.44 dB     U3 Klaviersonate Nr. 31 As-Dur Op. 110 – 3. Satz- Adagio, Ma Non Troppo – Fuga. Allegro, Ma Non Troppo.aif
 DR12        -1.06 dB     -17.94 dB     V1 Klaviersonate Nr. 32 C-Moll Op. 111 – 1. Satz- Maestoso – Allegro Con Brio Ed Appassionato.aif
 DR12        -3.75 dB     -21.86 dB     V2 Klaviersonate Nr. 32 C-Moll Op. 111 – 2. Satz- Arietta Molto Semplice E Cantabile.aif
 DR14        -9.30 dB     -28.10 dB     W1 6 Bagatellen Op. 126 – 1 Andante Con Moto Cantabile E Compiacevole.aif
 DR13        -5.20 dB     -22.54 dB     W2 6 Bagatellen Op. 126 – 2 Allegro.aif
 DR13        -8.14 dB     -27.56 dB     W3 6 Bagatellen Op. 126 – 3 Andante Cantabile E Grazioso.aif
 DR15        -4.46 dB     -24.17 dB     W4 6 Bagatellen Op. 126 – 4 Presto.aif
 DR12        -8.67 dB     -29.64 dB     W5 6 Bagatellen Op. 126 – 5 Quasi Allegretto.aif
 DR17        -1.48 dB     -23.50 dB     W6 6 Bagatellen Op. 126 – 6 Presto – Andante Amabile E Con Moto.aif
 DR13        -2.87 dB     -22.19 dB     W7 6 Ecossaisen Es-Dur Wo0 83.aif
 DR15        -1.25 dB     -20.82 dB     W8 Rondo A Capriccio G-Dur Op. 129 ‘Die Wut Ueber Den Verlorenen Groschen’ – Allegro Vivace.aif
 DR13        -15.94 dB     -32.73 dB     W9 Albumblatt ‘Fuer Elise’ A-Moll Wo0 59 – Poco Moto.aif
 DR14        -4.29 dB     -24.65 dB     X1 Andante Favori F-Dur Wo0 57 – Andante Grazioso Con Moto.aif
 DR16        -1.42 dB     -22.70 dB     X2 Rondo C-Dur Op. 51 Nr. 1 – Moderato E Grazioso.aif
 DR16        -1.95 dB     -23.53 dB     X3 Rondo G-Dur Op. 51 Nr. 2 – Andante Cantabile E Grazioso.aif
 DR14        -7.67 dB     -26.32 dB     X4 6 Variationen G-Dur Ueber Das Duett ‘Nel Cor Piu’ Non Mi Sento’ Aus Der Oper ‘La Molinara’ Von Givanni Paisiello Wo0 70.aif
 DR15        -1.12 dB     -20.85 dB     Y 33 Variationen Ueber Einen Walzer Von Anton Diabelli Fuer Klavier C-Dur Op. 120 – Teil 1- Thema – Variationen I – XXI.aif
 DR15        -1.11 dB     -22.11 dB     Z 33 Variationen Ueber Einen Walzer Von Anton Diabelli Fuer Klavier C-Dur Op. 120 – Teil 2- Thema – Variationen XXII – XXXIII.aif
 DR15        -1.23 dB     -22.36 dB     ZA1 8 Variationen Fuer Klavier Zu Vier Haenden Ueber Ein Thema Des Grafen Waldstein C-Dur Wo0 67 – Thema. Andante Con Moto – Variationen I – VIII.aif
 DR13        -1.57 dB     -18.79 dB     ZA2 Sonate Fuer Klavier Zu Vier Haenden D-Dur Pp. 6 – 1. Satz- Allegro Molto.aif
 DR14        -3.22 dB     -21.50 dB     ZA3 Sonate Fuer Klavier Zu Vier Haenden D-Dur Pp. 6 – 2. Satz- Rondo Moderato.aif
 DR15        -3.82 dB     -23.88 dB     ZA4 ‘Ich Denke Dein’ Lied D-Dur Mit 6 Variationen Fuer Klavier Zu Vier Haenden Wo0 74 – Andantino Cantabile – Variationen I – VI Coda.aif
 DR14        -1.26 dB     -21.26 dB     ZA5 Drei Maersche Fuer Klavier Zu Vier Haenden Op. 45 – 1. C-Dur. Allegro Ma Non Troppo – Trio.aif
 DR14        -3.29 dB     -22.35 dB     ZB1 Drei Maersche Fuer Klavier Zu Vier Haenden Op. 45 – 2. Es-Dur Vivace – Trio.aif
 DR15        -1.41 dB     -21.53 dB     ZB2 Drei Maersche Fuer Klavier Zu Vier Haenden Op. 45 – 3. D-Dur Vivace.aif
 DR15        -1.66 dB     -20.70 dB     ZB3 Grosse Fuge B-Dur Fuer Klavier Zu Vier Haenden Op. 134 .aif
———————————————————————————————-
 Number of files:    125
 Official DR value:    DR15
==============================================================================================
Ripping Info

Monitoring

  • Software: iZotope RX 4 Advanced, Adobe Audition CS 5.5, Twisted Wave 1.9
  • Super light de-clicking with iZotope, significant clicks manually removing, no de-noising
  • DR-Analisys before converting to Flac
  • Converting Wave -> Flac: Twisted Wave 1.9
  • Artwork: Sony Alpha 350, Epson Perfection V750 Pro, Photoshop CS 5.5

DONATION !
If you like what i do, please consider that a little donation would be very appreciated.
I reinvest all donations in maintenance of my rig, for purchasing cleaning solutions and, most important of all, purchasing of new vinyls.
Click on the “Donate”-button.

Thank you very much !

DL from FileFactory
27
archives
Artwork

PW: LaWally

25 thoughts on “HD-Vinyl 24/96 (DGG) Ludwig van Beethoven – 200 Years Edition, Box 8, Piano Works (14 LPs)

  1. Dear Rach,
    Thanks for your thoughtful consideration that cares to have paid the effort in completing the missed sections. Sonic differences? May be. Strange enough it seems my heart keep telling my ears to perceive otherwise.
    Great music.
    Tony

  2. Thanks for the sharing.

    Sonata 5, 6, 7 (other than 1st mov. of 5) match CD version perfectly, and their sonic differences to the rest of the set is minimal.

    But Gulda’s 5 just doesn’t fit well, put sonic difference aside the playing style of Gulda and Kempff are very different, so for the sake of continuity I would rather use CD version instead. On the other hand, Gulda’s version alone should deserve a separate ripping. Just my 2 cents.

    Bill

    • I didn’t want to use the CD track, because it is… CD and doesn’t have too much to do with HD. I took Gulda only for completing the Sonatas. This was the only reason.

      • I double checked background noise and track length, it look like 6 & 7 came from official HD release and 5’s 2nd and 3rd mov. didn’t.

        I manage to get No.5 official HD today, if you need it pm me.

        • I had all missed tracks (but the 1st one) from a blog that offered official HD tracks… I know, they seem to believe, people can be fooled by them and they don’t see it. But once I did and this is the main reason, why I don’t trust HD tracks, never more, after I got upsampled files (from 44.1kHz/16bit to 96kHz/24bit).

          Sorry, for any inconvenience.

          You don’t believe, I wrote to DGG telling about the “problem” of the missed LP, asking if they have by accident the right one 😀

  3. Hi Rach,
    first of all, thanks for all these enjoyable and wonderful shares.
    YOU are wonderful too !!!
    I’ve a little request : in this LvB Bicentenial Box08 i cannot find who performs each sonata (searched on the net, never found the answer).
    I’ve noticed that Anda / Kempff / Demus/ Shetler & Gulda were involved, but who does what?
    Could you please (or anyone else) give me the information ?
    Thanks
    Regards

  4. Hi, Rachmaninoff,
    I am not able to find a list of which pianist plays which pieces. I think finding out which performer is playing is important. Can you please give me that information?
    Is there some pattern? I think I hear Kempff in the earlier sonatas, but that is only a guess. Where did you put (or tag) the performer’s name?
    Thank you,
    J.

Leave a Reply