HD-Vinyl 24/96 (DGG) LvB – Piano Concerto No.3 C-Minor / Rondo B-Flat-Major (Richter)

front-small-boxsetMany thanks to Jean-Luc for this precious gift
Nine years have elapsed since the death of this giant of the piano. Sviatoslav Richter left a wake so difficult to forget, because among other virtues, his powerful imagination allowed him to perform with absolute idiomatic lexicon, the most exigent scores. This album shows us Richter in one of his preferred works. The fabulous Beethoven Concerto No. 3 filled of reminiscences and mythic meaning.
One of his major artistic achievements along his successful career.

Composer: Ludwig van Beethoven
Performer: Svjatoslav Richter
Orchestra: Vienna Symphony Orchestra
Conductor: Kurt Sanderling
Vinyl (1966)
Number of Discs: 1
Format: Flac
Label: DGG
DR-Analysis: DR 13
Size: 933 MB
Scan: yes
Server: FileFactory



  Konzert Für Klavier Und Orchester Nr. 3 C-moll Op. 37
A 1. Satz: Allegro Con Brio 17:04
B1 2. Satz: Largo 9:56
B2 3. Satz: Rondo: Allegro 8:41
  Rondo Für Klavier Und Orchester B-dur Op. Posth.
B3 Allegro 9:15


Analyzed folder: /96k LvB – Piano Concerto No. 3 – Richter
DR        Peak        RMS        Filename
DR14        -1.30 dB     -20.97 dB     A Piano Concerto No. 3 C-Minor Op. 37 – 1st Mov. Allegro Con Brio.aif
DR14        -4.00 dB     -24.23 dB     B1 Piano Concerto No. 3 C-Minor Op. 37 – 2nd Mov. Largo.aif
DR12        -1.05 dB     -18.04 dB     B2 Piano Concerto No. 3 C-Minor Op. 37 – 3rd Mov. Rondo- Allegro.aif
DR12        -2.44 dB     -19.26 dB     B3 Rondo B-Major – Allegro.aif
Number of files:    4
Official DR value:    DR13


  • Composed By – Ludwig van Beethoven
  • Conductor – Kurt Sanderling
  • Engineer [Toningenieur] – Heinz Wildhagen
  • Orchestra – Wiener Symphoniker
  • Photography By – Siegfried Lauterwasser
  • Piano – Svjatoslav Richter
  • Recording Supervisor [Aufnahmeleiter] – Hans Weber
Jacket printed in Germany. Disc manufactured by RCA / USA

Ripping Info


If You hear some clicks and pops here and there, Who cares?
Id rather have a few light anomalies instead of destroying the music.
Enjoy the music, not the ticks & pops.
My rips are almost rough rips.

  • Software: iZotope RX 4 Advanced, Adobe Audition CS 5.5, Twisted Wave 1.9
  • Super light de-clicking with iZotope, significant clicks manually removing, no de-noising
  • DR-Analisys before converting to Flac
  • Converting Wave -> Flac: Twisted Wave 1.9
  • Artwork: Sony Alpha 350, Epson Perfection V750 Pro, Photoshop CS 5.5

If you like what i do, please consider that a little donation would be very appreciate.
I reinvest all donations in maintenance of my rig, for purchasing cleaning solutions and, most important of all, purchasing of new vinyls.
Click on the “Donate”-button.

Thank you very much !

Download from FileFactory
2 archives
PW: LaWally


9 thoughts on “HD-Vinyl 24/96 (DGG) LvB – Piano Concerto No.3 C-Minor / Rondo B-Flat-Major (Richter)

  1. Thank you very much, dear Alf!
    This is my favourite Beethoven concerto.
    Never heard Richter’s performance thereof (I like Pollini’s one most of all).
    Now it’s time to fill this gap.

  2. I’m basking in this glorious music just now. Richter’s technique, feel and touch are so integral with his heart and soul, he sounds as if he wrote it.

    He conveys such a marvelous sense of the music. I love it!

    Thanks to all for this treasure.

Leave a Reply