HD-Vinyl 24/96 (DGG) Wolfgang Amadeus Mozart – Symphonies No. 29 & 33 (Karajan)

front-small-boxset
A well appreciated complement to my rip of WAM’s Symphonies No. 32, 35, 36, 38, 39, 40, 41 High-Def Vinyls 96K24B (DGG) W. A. Mozart – Symphonies

Composer: Wolfgang Amadeus Mozart
Orchestra: Berlin Philharmonic Orchestra
Conductor: Herbert von Karajan
Vinyl 1966
Number of discs: 1
Format: Flac
Label: DGG
DR-Analysis:
DR 13
Size: 800 MB
Scan: yes
Server: FF

 Tracklist

  Symphonie Nr. 29 A-dur KV 201  
A1 1. Satz: Allegro Moderato 7:00
A2 2. Satz: Andante 5:57
A3 3. Satz: Menuetto 4:05
A4 4. Satz: Allegro Con Spirito 4:07
  Symphonie Nr. 33 B-dur KV 319  
B1 1. Satz: Allegro Assai 6:50
B2 2. Satz: Andante Moderato 4:51
B3 3. Satz: Menuetto 3:26
B4 4. Satz: Allegro Assai 4:17

———————————————————————————————-
Analyzed folder: /96k WAM – Symphonies No. 29, No. 33 – Karajan
———————————————————————————————-
DR        Peak        RMS        Filename
———————————————————————————————-
DR11        -2.21 dB     -17.34 dB     A1 Symphonie Nr. 29 A-dur KV 201 – 1. Satz- Allegro Moderato.aif
DR13        -4.31 dB     -22.35 dB     A2 Symphonie Nr. 29 A-dur KV 201 – 2. Satz- Andante.aif
DR12        -2.72 dB     -19.42 dB     A3 Symphonie Nr. 29 A-dur KV 201 – 3. Satz- Menuetto.aif
DR12        -0.95 dB     -16.37 dB     A4 Symphonie Nr. 29 A-dur KV 201 – 4. Satz- Allegro Con Spirito.aif
DR12        -0.74 dB     -17.46 dB     B1 Symphonie Nr. 33 B-dur KV 319 – 1. Satz- Allegro Assai.aif
DR14        -4.62 dB     -23.48 dB     B2 Symphonie Nr. 33 B-dur KV 319 – 2. Satz- Andante Moderato.aif
DR13        -0.87 dB     -18.87 dB     B3 Symphonie Nr. 33 B-dur KV 319 – 3. Satz- Menuetto.aif
DR12        -1.09 dB     -18.06 dB     B4 Symphonie Nr. 33 B-dur KV 319 – 4. Satz- Allegro Assai.aif
———————————————————————————————-
Number of files:    8
Official DR value:    DR12
==============================================================================================

Credits

  • Composed By – Wolfgang Amadeus Mozart
  • Conductor – Herbert Von Karajan
  • Engineer [Recording Engineer] – Günter Hermanns
  • Illustration – Prof. Johann Georg Geyger
  • Liner Notes – Karl Schumann
  • Orchestra – Berliner Philharmoniker
  • Photography By [Foto Herbert von Karajan] – Werner Neumeister
  • Producer – Otto Gerdes
  • Recording Supervisor – Otto Ernst Wohlert
Recorded 19~23rd Aug. 1965 at Viktoriasaal, San Moritz.

Ripping Info

Monitoring

  • Software: iZotope RX 4 Advanced, Adobe Audition CS 5.5, Twisted Wave 1.9
  • Super light de-clicking with iZotope, significant clicks manually removing, no de-noising
  • DR-Analisys before converting to Flac
  • Converting Wave -> Flac: Twisted Wave 1.9
  • Artwork: Sony Alpha 350, Epson Perfection V750 Pro, Photoshop CS 5.5

DONATION !
If you like what i do, please consider that a little donation would be very appreciated.
I reinvest all donations in maintenance of my rig, for purchasing cleaning solutions and, most important of all, purchasing of new vinyls.
Click on the “Donate”-button. Thank you very much !

DL from FileFactory

PW: LaWally

10 thoughts on “HD-Vinyl 24/96 (DGG) Wolfgang Amadeus Mozart – Symphonies No. 29 & 33 (Karajan)

  1. This 1966 BPO production on DGG with your Hi def, Alf, has as opulent a sound as possible: a pure pleasure to listen to it: good in every respect.
    Bob

    • sometimes (I swear) I open boxset-comments only to see if my “Großonkel” has let a comment 😀
      Love you, great Bob!

Leave a Reply