HD-Vinyl 24/96 (EMI) Domenico Scarlatti – 33 Piano Sonatas (Zacharias)

front-small-boxset
All thanks for this masterwork go to Jean-Luc
There are not only WAM’s & LvB’s piano sonatas, out there…
All those truly jewels compounding Domenico Scarlatti’s catalogue of keyboard sonatas – short pieces in one movement, greatly imbued with Iberian flavour and passionate rhythms – call for a gifted musician who must be able to naturally alternate melodic lines, sharply shade contrasts and lively use vivid tempos. Therefore only an agile-minded pianist can qualify for the task of interpreting Scarlatti’s sonatas at a masterful degree, a pianist who possesses a robust insight in what music means at its deepest level: feeling embodied in sound. Scarlatti proves a maestro of atmosphere demanding at a largest extent the soloist approaching his music.
Christian Zacharias is – for me – among the living pianists the most suitable to this music. He has all the required qualities as a super-class musician and actually he seems fond of playing this music, loving to polish the phrase up to its last consequences, extracting the right nuances and moods from his keyboard. In short, Christian Zacharias reigns supreme in the realm of clever virtuosity and spontaneous empathy with Scarlatti’s output.

Composer: Domenico Scarlatti
Performer:
Christian Zacharias
Vinyl 1979-1982(1985)
Number of discs: 3
Format: Flac
Label: EMI
DR-Analysis:
DR 12
Size: 2.92 GB
Scan: yes
Server: FF

 

———————————————————————————————-
Analyzed folder: /96k Scarlatti – 33 Piano Sonatas – Zacharias
———————————————————————————————-
DR        Peak        RMS        Filename
———————————————————————————————-
DR12        -3.95 dB     -20.63 dB     A1  Sonate K 162 E-dur Andante – Allegro.aif
DR12        -6.40 dB     -22.52 dB     A2  Sonate K 481 F-moll Cantabile.aif
DR12        -0.96 dB     -16.91 dB     A3  Sonate K 460 C-dur.aif
DR12        -0.98 dB     -16.80 dB     A4  Sonate K 96 D-dur.aif
DR13        -4.13 dB     -21.77 dB     A5  Sonate K 87 H-moll.aif
DR13        -1.19 dB     -16.42 dB     B1  Sonate K 454 G-dur Andante Spirituoso.aif
DR12        -1.87 dB     -16.98 dB     B2  Sonate K 455 G-dur Allegro.aif
DR12        -6.13 dB     -22.41 dB     B3  Sonate K 466 F-moll Andante Moderato.aif
DR11        -2.59 dB     -16.68 dB     B4  Sonate K 467 F-moll Allegrissimo.aif
DR11        -5.16 dB     -19.90 dB     B5  Sonate K 531 E-dur Allegro.aif
DR13        -0.77 dB     -18.83 dB     B6  Sonate K 39 A-dur Allegro.aif
DR12        -10.03 dB     -25.15 dB     C1  Sonate K 247 Cis-moll Allegro (moderato).aif
DR12        -5.54 dB     -21.46 dB     C2  Sonate K 118 D-dur Non Presto.aif
DR12        -2.76 dB     -18.12 dB     C3  Sonate K 436 D-dur Allegro.aif
DR13        -10.28 dB     -27.66 dB     C4  Sonate K 544 B-dur Cantabile.aif
DR12        -0.53 dB     -16.81 dB     C5  Sonate K 516 D-moll Allegretto.aif
DR11        -4.59 dB     -17.78 dB     C6  Sonate K 517 D-moll Prestissimo.aif
DR13        -1.63 dB     -18.41 dB     D1  Sonate K 124 G-dur Allegro.aif
DR11        -11.30 dB     -25.92 dB     D2  Sonate K 208 A-dur Andante E Cantabile.aif
DR13        -2.82 dB     -20.96 dB     D3  Sonate K 209 A-dur Allegro.aif
DR11        -10.37 dB     -25.68 dB     D4  Sonate K 474 Andante E Cantabile.aif
DR12        -4.14 dB     -19.49 dB     D5  Sonate K 475 Es-dur Allegrissimo.aif
DR13        -2.85 dB     -19.21 dB     E1  Sonate K 380 Es-dur Andante Comodo.aif
DR12        -1.12 dB     -15.92 dB     E2  Sonate K 381 E-dur Allegro.aif
DR12        -2.98 dB     -17.86 dB     E3  Sonate K 318 Fis-dur Andante.aif
DR12        -1.45 dB     -16.98 dB     E4  Sonate K 319 Fis-dur Allegro.aif
DR12        -7.51 dB     -22.35 dB     E5  Sonate K 322 A-dur Allegro.aif
DR12        -1.08 dB     -16.80 dB     E6  Sonate K 533 A-dur Allegro Assai.aif
DR13        -3.43 dB     -19.83 dB     F1  Sonate K 183 F-moll Allegro.aif
DR12        -1.70 dB     -16.12 dB     F2  Sonate K 386 F-moll Presto.aif
DR13        -1.43 dB     -19.69 dB     F3  Sonate K 193 Es-dur Allegro.aif
DR14        -0.44 dB     -19.69 dB     F4  Sonate K 296 F-dur Andante.aif
DR12        -1.04 dB     -16.99 dB     F5  Sonate K 551 B-dur Allegro.aif
———————————————————————————————-
Number of files:    33
Official DR value:    DR12
==============================================================================================

 

Ripping Info

Monitoring

  • Software: iZotope RX 4 Advanced, Adobe Audition CS 5.5, Twisted Wave 1.9
  • Super light de-clicking with iZotope, significant clicks manually removing, no de-noising
  • DR-Analisys before converting to Flac
  • Converting Wave -> Flac: Twisted Wave 1.9
  • Artwork: Sony Alpha 350, Epson Perfection V750 Pro, Photoshop CS 5.5

DONATION !
If you like what i do, please consider that a little donation would be very appreciated.
I reinvest all donations in maintenance of my rig, for purchasing cleaning solutions and, most important of all, purchasing of new vinyls.
Click on the “Donate”-button. Thank you very much !

DL from FileFactory

PW: LaWally

12 thoughts on “HD-Vinyl 24/96 (EMI) Domenico Scarlatti – 33 Piano Sonatas (Zacharias)

Leave a Reply