HD-Vinyl 24/96 (EMI) Debussy/Fauré/Duparc – A French Song Recital (Janet Baker, Gerald Moore)

Many thanks to our friend Trottar

Composer: Claude Debussy, Gabriel Fauré, Henri Duparc
Performer: Janet Baker, Gerald Moore
Vinyl (1970)
Number of discs: 1
Format: Flac
Label: EMI
DR 12
Size: 1.01 GB
Scan: yes
Server: FF


A1 TROIS CHANSONS DE BILITIS: A) L Flute De Pan; B) La Chevelure; C) Le Tombeau Des Niades

Lyrics By – Pierre Louÿs

A2 LE PROMENOIR DES DEUX AMANTS: A) Auprès De Cette Grotte Sombre; B) Crois Mon Conseil, Chère Climène; C) Je Tremble En Voyant Ton Visage

Lyrics By – Tristan Lhermite*

A3 Au Pays Où Se Fait La Guerre

Lyrics By – Théophile Gautier

A4 Phidylé

Lyrics By – Leconte De Lisle

B1 Automne Op.18 No.3

Lyrics By – Armand Silvestre

B2 A) Prison Op 83 No.1; B) Soir Op.83 No.2

Lyrics By – Albert Samain, Paul Verlaine

B3 Fleur Jetée Op.39 No.2

Lyrics By – Armand Silvestre

B4 En Sourdine Op.58 No.2

Lyrics By – Paul Verlaine

B5 Notre Amour Op.23 No.2

Lyrics By – Armand Silvestre

B6 Mai Op.1 No.2

Lyrics By – Victor Hugo

B7 Chanson Du Pecheur Op.4 No.1

Lyrics By – Théophile Gautier

B8 Clair De Lune Op.46 No.2

Lyrics By – Paul Verlaine


Analyzed folder: /96k Janet Baker – A French Song Recital
DR        Peak        RMS        Filename
DR16        -1.30 dB     -23.65 dB     A1 Debussy – TROIS CHANSONS DE BILITIS- A) L Flute De Pan, B) La Chevelure, C) Le Tombeau Des Niades.aif
DR15        -3.72 dB     -25.84 dB     A2 Debussy – LE PROMENOIR DES DEUX AMANTS- A) Aupres De Cette Grotte Sombre, B) Crois Mon Conseil, Chere Climene, C) Je Tremble En Voyant Ton Visage.aif
DR13        -1.00 dB     -19.50 dB     A3 Duparc – Au Pays Ou Se Fait La Guerre.aif
DR13        -2.36 dB     -21.96 dB     A4 Duparc – Phidyle.aif
DR12        -1.61 dB     -20.12 dB     B1 Faure – Automne Op.18 No.3.aif
DR10        -1.11 dB     -20.45 dB     B2 Faure – A) Prison Op 83 No.1, B) Soir Op.83 No.2.aif
DR10        -1.55 dB     -16.40 dB     B3 Faure – Fleur Jetee Op.39 No.2.aif
DR15        -2.90 dB     -23.70 dB     B4 Faure – En Sourdine Op.58 No.2.aif
DR11        -2.84 dB     -20.03 dB     B5 Faure – Notre Amour Op.23 No.2.aif
DR12        -3.65 dB     -21.55 dB     B6 Faure – Mai Op.1 No.2.aif
DR12        -2.33 dB     -21.59 dB     B7 Faure – Chanson Du Pecheur Op.4 No.1.aif
DR12        -4.87 dB     -24.25 dB     B8 Faure – Clair De Lune Op.46 No.2.aif
Number of files:    12
Official DR value:    DR12

Ripping Info


  • Software: iZotope RX 4 Advanced, Adobe Audition CS 5.5, Twisted Wave 1.9
  • Super light de-clicking with iZotope, significant clicks manually removing, no de-noising
  • DR-Analisys before converting to Flac
  • Converting Wave -> Flac: Twisted Wave 1.9
  • Artwork: Sony Alpha 350, Epson Perfection V750 Pro, Photoshop CS 5.5

If you like what i do, please consider that a little donation would be very appreciated.
I reinvest all donations in maintenance of my rig, for purchasing cleaning solutions and, most important of all, purchasing of new vinyls.
Click on the “Donate”-button.

Thank you very much !

DL from FileFactory

PW: LaWally

6 thoughts on “HD-Vinyl 24/96 (EMI) Debussy/Fauré/Duparc – A French Song Recital (Janet Baker, Gerald Moore)

Leave a Reply