HD-Vinyl 24/96 (EMI) Joaquin Rodrigo – Concierto de Aranjuez (Moreno)

Reposted, now with FF links

# Composer: Joaquin Rodrigo
# Performer: Alfonso Moreno
# Orchestra: London Symphony Orchestra
# Conductor: Enrique Bátiz

# Vinyl (1982)
# Number of Discs: 1
# Format: Flac (Tracks)
# Label: Angel (EMI)

# DR-Analysis: DR 15
# ASIN: B00000DO84

# Size: 843 MB
# Scan: Yes

# Server: FileFactory

I’ve heard (live and on records) to many dozens of “Aranjuez” performances; some were really perfect, some other were fiery, some were elegant, some other good HiFi but boring, horrible HiFi but phantastic performance…. and so on…. but let me say: this a very non-spectacular and very “spanish” Aranjuez concerto…a precious gem.

Alfonso Moreno is a Mexican guitarist of international repute and founder of the Los Angeles Guitar Quartet. Here he does an excellent job as solo guitarist on Rodrigo’s Concierto de Aranjuez, accompanied by the London Symphony Orchestra conducted by Enrique Bátiz.

Analyzed folder: /96k Rodrigo – Aranjuez – Moreno
DR        Peak        RMS        Filename
DR16        -0.91 dB     -22.17 dB     A1 Concierto de Aranjuez – Allegro con Spirito.wav
DR15        -2.75 dB     -23.97 dB     A2 Concierto de Aranjuez – Adagio.wav
DR15        -1.01 dB     -21.96 dB     A3 Concierto de Aranjuez – Allegro gentile.wav
DR14        -0.83 dB     -19.85 dB     B1 A la busca del mas alla.wav
DR15        -3.25 dB     -23.72 dB     B2 Zarabanda lejana y Villancico.wav
Number of files:    5
Official DR value:    DR15


Ripping Infos

  • RCM: Okki Nokki
  • TT: Clearaudio Champion Level II
  • System: Limited Edition Denon DL 103 SA
  • Phono stage: Pro-Ject Phono Box II
  • Pre Amp: Unison Research Unico Pre (Tube)
  • Finals: Opera Consonance 9.9 Mono (Tube)
  • Speakers: Dali Helikon 400
  • Connections: MIT Terminator, Audioquest Emerald, Audioquest Quartz
  • Software: iZotope RX Advanced v2.02, Adobe Audition CS 5.5, Twisted Wave 1.9
  • Light de-Clicking with iZotope, significant clicks manually removing, no De-Noising

If You hear some clicks and pops here and there, Who cares?
Id rather have a few light anomalies instead of destroying the music. Enjoy the music, not the ticks & pops

  • DR-Analisys before converting to Flac
  • Converting Wave -> Flac: Twisted Wave 1.9
  • Artwork: Sony Alpha 350, Epson Perfection V750 Pro, Photoshop CS 5.5

If you like what i do, please consider that a little donation would be very appreciate. I reinvest all donations in maintenance of my rig, for purchasing cleaning solutions and, most important of all, purchasing of new vinyls.
Click on the “Donate”-button. Thank you very much !

Download from FileFactory

3 archives
PW: LaWally


6 thoughts on “HD-Vinyl 24/96 (EMI) Joaquin Rodrigo – Concierto de Aranjuez (Moreno)

  1. hola! rachmaninov, muchas gracias por las maravillas que compartes con nosotros tus amigos invisibles, te informo que el primer track de el concierto de aranjuez no existe, has algo por favor ya que es realmente una excelente grabacion
    muchas gracias.

Leave a Reply