HD-Vinyl 24/96 (EMI) Joseph Haydn – The Nelson Mass – (Marriner)

Thank you Jean-Luc for this gem
The “Missa in Angustiis” (Mass for troubled times) or Nelson Mass (Hob. XXII/11), is one of fourteen masses written by Joseph Haydn. It is one of the six masses written near the end of his life which are, together, now seen as a culmination of Haydn’s liturgical composition. Haydn’s chief biographer, H. C. Robbins Landon, has written that this mass “is arguably Haydn’s greatest single composition”. Written in 1798, it is one of the six late masses by Haydn for the Esterhazy family composed after taking a short hiatus, during which elaborate church music was inhibited by the Josephinian reforms of the 1780s. The late sacred works of Haydn are masterworks, influenced by the experience of his London symphonies. They highlight the soloists and chorus while allowing the orchestra to play a prominent role.

R.I.P. Maestro Marriner 🙁

Composer: Joseph Haydn
Performer: Carolyn Watkinson, Robert Holl, Margaret Marshall, Keith Lewis
Orchestra: Staatskapelle Dresden

Conductor: Neville Marriner
Vinyl (1989)
Number of Discs: 1
Format: Flac
Label: EMI
DR-Analysis: 13
Size: 843 MB
Scan: yes
Server: FileFactory



Read more —> HERE <—



  Missa In Angustiis (‘Nelson Messe’) Hob.XXII:11 – Mass No.11 In D Minor  
A1 Kyrie 4:26
A2 Gloria In Excelsis 3:23
A3 Qui Tollis 5:07
A4 Quoniam Tu Solus Sanctus 2:38
A5 Credo In Unum Deum 1:39
A6 Et Incarnatus Est 4:26
A7 Et Resurrexit 3:40
B1 Sanctus 2:27
B2 Benedictus 5:42
B3 Osanna 0:40
B4 Agnus Dei 3:21
B5 Dona Nobis Pacem 2:30

 Analyzed folder: /96k Haydn – Nelson Mass – Marriner
 DR        Peak        RMS        Filename
 DR13        -0.64 dB     -17.40 dB     A1 Kyrie.aif
 DR13        -1.26 dB     -19.54 dB     A2 Gloria In Excelsis.aif
 DR13        -5.25 dB     -24.79 dB     A3 Qui Tollis.aif
 DR12        -1.22 dB     -18.00 dB     A4 Quoniam Tu Solus Sanctus.aif
 DR12        -3.56 dB     -19.11 dB     A5 Credo In Unum Deum.aif
 DR16        -2.05 dB     -25.38 dB     A6 Et Incarnatus Est.aif
 DR12        -1.79 dB     -19.06 dB     A7 Et Resurrexit.aif
 DR12        -3.40 dB     -21.36 dB     B1 Sanctus.aif
 DR14        -1.15 dB     -21.18 dB     B2 Benedictus.aif
 DR11        -1.94 dB     -17.57 dB     B3 Osanna.aif
 DR14        -9.34 dB     -28.57 dB     B4 Agnus Dei.aif
 DR13        -0.22 dB     -17.48 dB     B5 Dona Nobis Pacem.aif
 Number of files:    12
 Official DR value:    DR13

Ripping Info


  • Software: iZotope RX 4 Advanced, Adobe Audition CS 5.5, Twisted Wave 1.9
  • Super light de-clicking with iZotope, significant clicks manually removing, no de-noising
  • DR-Analisys before converting to Flac
  • Converting Wave -> Flac: Twisted Wave 1.9
  • Artwork: Sony Alpha 350, Epson Perfection V750 Pro, Photoshop CS 5.5

If you like what i do, please consider that a little donation would be very appreciate.
I reinvest all donations in maintenance of my rig, for purchasing cleaning solutions and, most important of all, purchasing of new vinyls.
Click on the “Donate”-button.

Thank you very much !

DL from FileFactory
PW: LaWally

10 thoughts on “HD-Vinyl 24/96 (EMI) Joseph Haydn – The Nelson Mass – (Marriner)

  1. Marriner and Haydn! More treasures from the Jean-Luc vaults 😀
    Thanks Alf for your continuing tribute to a dear friend of music lovers.

Leave a Reply