HD-Vinyl 24/96 (EMI) Klaas Bolt Plays The Arp Schnitger Organs of Uithuizen, Golindze and Nieuw Scheemda

Many thanks to our friend Trottar for this rarity
Klaas Bolt (March 6, 1927 in Appingedam – April 11, 1990 in Haarlem) was a Dutch organist and improviser. He taught improvisation at the Sweelinck Conservatory (named for Jan Pieterszoon Sweelinck, a Dutch organist and composer of the Renaissance) in Amsterdam, where Masaaki Suzuki was among his students. Bolt was a proponent of the use of slow tempi when playing hymns. He played many hymns at his weekly evening hymn sings, which drew substantial audiences. He would typically improvise the hymn introductions at these events.

Composer: Vincent Lübeck, Samuel Scheidt, Georg Böhm, Georg Philipp Telemann, Georg Friedrich Händel, Georg Böhm, Heinrich Scheidemann, Jan Pieterz Sweelinck
Performer: Klaas Bolt
Vinyl (1969)
Number of discs: 1
Format: Flac
Label: EMI
DR 10
Size: 961 MB
Scan: yes
Server: FF


Analyzed folder: /96k Arp Schnitger – Klaas Bolt
DR        Peak        RMS        Filename
DR12        -1.40 dB     -17.05 dB     A1 Luebeck – Preludium and Fugue E-Major.aif
DR10        -3.06 dB     -16.59 dB     A2 Luebeck – Fugue A-Minor.aif
DR10        -2.01 dB     -15.98 dB     A3 Scheidt – Coral ‘Aus Tiefster Not Schrei Ich Zu Dir’.aif
DR9        -4.90 dB     -17.14 dB     A4 Boehm – ‘Aus Tiefster Not Schrei Ich Zu Dir’.aif
DR11        -6.75 dB     -19.73 dB     B1 Telemann – Fantasy D-Minor.aif
DR9        -8.18 dB     -20.05 dB     B2 Telemann – Fuga A-Minor.aif
DR11        -3.25 dB     -16.85 dB     B3 Haendel – Fuga B-Major.aif
DR11        -6.59 dB     -21.08 dB     B4 Haendel – Carillion.aif
DR11        -0.96 dB     -16.18 dB     B5 Boehm – Capriccio D-Major.aif
DR9        -6.37 dB     -16.85 dB     B6 Scheidemann – Preambulum.aif
DR11        -2.00 dB     -17.46 dB     B7 Sweelink – ‘Mein Junges Leben Hat Ein End’.aif
Number of files:    11
Official DR value:    DR10


Ripping Info


  • Software: iZotope RX 4 Advanced, Adobe Audition CS 5.5, Twisted Wave 1.9
  • Super light de-clicking with iZotope, significant clicks manually removing, no de-noising
  • DR-Analisys before converting to Flac
  • Converting Wave -> Flac: Twisted Wave 1.9
  • Artwork: Sony Alpha 350, Epson Perfection V750 Pro, Photoshop CS 5.5

If you like what i do, please consider that a little donation would be very appreciated.
I reinvest all donations in maintenance of my rig, for purchasing cleaning solutions and, most important of all, purchasing of new vinyls.
Click on the “Donate”-button.

Thank you very much !

DL from FileFactory

PW: LaWally

9 thoughts on “HD-Vinyl 24/96 (EMI) Klaas Bolt Plays The Arp Schnitger Organs of Uithuizen, Golindze and Nieuw Scheemda

  1. The key of this record are the organs built by the famous Arp Schnitger. He and the Silbermann family were th most famous organ builders of the baroque time. Arp Schnitger Organs still existing in 58 Churches mainly in North Germany and North Holland. I bought the recording during an Arp Schnitger Organ Tour guided
    by the famous organist Harald Vogel.-I am since 25 years a member of the
    Arp Schnitger Society. Trottar

Leave a Reply