HD-Vinyl 24/96 (EMI) Ludwig van Beethoven – Sonatas For Violin And Piano No. 5 & 9 (Menuhin)

front-small-boxset
All thanks for this go to Lemarquis

Composer: Ludwig van Beethoven
Performer: Yehudi Menuhin, Hephzibah Menuhin
Vinyl 1959
Number of Discs: 1
Format: Flac
Label: EMI
DR-Analysis: DR13
Size: 1.17 GB
Scan: yes
Server:
FF

 

Tracklist

  Sonate Für Violine Und Klavier Nr. 9 A-dur Op. 47 ‘Kreutzer-Sonate’  
A1 1. Satz: Adagio Sostenuto – Presto  
A2 2. Satz: Andante Con Variazioni 1 To 4  
B1 3. Satz: Finale (Presto)  
  Sonate Für Violine Und Klavier Nr. 5 F-dur Op. 24 ‘Frühlings-Sonate’  
B2 1. Satz: Allegro  
B3 2. Satz: Adagio Molto Espressivo  
B4 3. Satz: Scherzo (Allegro Molto) And Trio – 4. Satz: Rondo (Allegro Ma Non Troppo)  

———————————————————————————————-
 Analyzed folder: /96k Sonatas For Violin And Piano 5 and 9 – Menhuin
———————————————————————————————-
 DR        Peak        RMS        Filename
———————————————————————————————-
 DR12        -1.06 dB     -18.17 dB     A1 Sonate Fuer Violine Und Klavier Nr. 9 A-dur Op. 47 ‘Kreutzer-Sonate’ – 1. Satz- Adagio Sostenuto – Presto.aif
 DR14        -5.34 dB     -23.96 dB     A2 Sonate Fuer Violine Und Klavier Nr. 9 A-dur Op. 47 ‘Kreutzer-Sonate’ – 2. Satz- Andante Con Variazioni 1 To 4.aif
 DR12        -2.22 dB     -18.59 dB     B1 Sonate Fuer Violine Und Klavier Nr. 9 A-dur Op. 47 ‘Kreutzer-Sonate’ – 3. Satz- Finale (Presto).aif
 DR13        -1.09 dB     -18.55 dB     B2 Sonate Fuer Violine Und Klavier Nr. 5 F-dur Op. 24 ‘Fruehlings-Sonate’ – 1. Satz- Allegro.aif
 DR13        -8.27 dB     -26.39 dB     B3 Sonate Fuer Violine Und Klavier Nr. 5 F-dur Op. 24 ‘Fruehlings-Sonate’ – 2. Satz- Adagio Molto Espressivo.aif
 DR12        -1.65 dB     -18.26 dB     B4 Sonate Fuer Violine Und Klavier Nr. 5 F-dur Op. 24 ‘Fruehlings-Sonate’ – 3. Satz- Scherzo (Allegro Molto) And Trio – 4. Satz- Rondo (Allegro Ma Non Troppo).aif
———————————————————————————————-
 Number of files:    6
 Official DR value:    DR13
==============================================================================================

 

Ripping Info

Monitoring

  • Software: iZotope RX 4 Advanced, Adobe Audition CS 5.5, Twisted Wave 1.9
  • Super light de-clicking with iZotope, significant clicks manually removing, no de-noising
  • DR-Analisys before converting to Flac
  • Converting Wave -> Flac: Twisted Wave 1.9
  • Artwork: Sony Alpha 350, Epson Perfection V750 Pro, Photoshop CS 5.5

DONATION !
If you like what i do, please consider that a little donation would be very appreciated.
I reinvest all donations in maintenance of my rig, for purchasing cleaning solutions and, most important of all, purchasing of new vinyls.
Click on the “Donate”-button. Thank you very much !

DL from FileFactory

PW: LaWally

10 thoughts on “HD-Vinyl 24/96 (EMI) Ludwig van Beethoven – Sonatas For Violin And Piano No. 5 & 9 (Menuhin)”

Leave a Reply