HD-Vinyl 24/96 (EMI) Sir Neville Marriner & The Academy Of St. Martin-in-the-Fields

front-small-boxsetLife President of the Academy, Sir Neville Marriner began his career as a violinist, playing first in a string quartet and trio, then in the London Symphony Orchestra. It was during this period that he founded the Academy, with the aim of forming a top-class chamber ensemble from London’s finest players. Beginning as a group of friends who gathered to rehearse in Sir Neville’s front room, the Academy gave its first performance in its namesake church in 1958.

Farewell, Maestro Marriner. R.I.P. 🙁

Composer: Antonin Dvorak, Christoph Willibald Gluck, Edvard Grieg, Felix Mendelssohn-Bartholdy, Franz Schubert, Gabriel Faure, Georg Friedrich Haendel, Johann Pachelbel, Leopold Mozart, Ludwig van Beethoven, Luigi Boccherini, Pyotr Ilyich Tchaikovsky, Richard Wagner, Tommaso Albinoni, Wolfgang Amadeus Mozart
Orchestra: The Academy Of St. Martin-in-the-Fields
Conductor: Sir Neville Marriner
Vinyl (1980)
Number of Discs: 4
Format: Flac
Label: EMI
DR-Analysis: DR 13
Size: 3.72 GB
Scan: yes
Server: FileFactory

On the strength of this, the Academy was invited to make a record for a new company called L’Oiseau Lyre. “And thanks to a very generous review from Denis Stevens in The Gramophone, promoters noticed us” Sir Neville says. “We were able to do a German tour, and other record companies took notice. It was a fortuitous snowball. The only credit we can claim is that we decided always to have good players and never to go on the platform under-rehearsed.” The Academy now enjoys one of the largest discographies of any chamber orchestra worldwide, and its partnership with Sir Neville is the most recorded of any orchestra and conductor.

As a player, Sir Neville had observed some of the greatest conductors at close quarters. He worked as an extra under Toscanini and Furtwängler, with Joseph Krips, George Szell, Stokowski and mentor Pierre Monteux. Sir Neville began his conducting career in 1969, after his studies in America with Maestro Monteux. At this time he founded the Los Angeles Chamber Orchestra, at the same time as developing and extending the size and repertoire of the Academy. In 1979 he became Music Director and Principal Conductor of both the Minneapolis Symphony Orchestra and the Südwest Deutsche Radio Orchestra in Stuttgart, positions he held until the late into the 1980s. Subsequently he has continued to work with orchestras round the globe in Vienna, Berlin, Paris, Milan, Athens, New York, Boston, San Francisco and Tokyo. In 2011 Sir Neville was appointed Honorary Conductor of the newly formed I, Culture Orchestra which brings together the most talented young musicians from Eastern Europe. Whilst pursuing his own conducting career, Sir Neville has always remained a dominant influence in the Academy’s story.

Honoured three times for his services to music in this country – most recently being made a Companion of Honour in June 2015 – Sir Neville has also been awarded honours in France, Germany and Sweden. Sir Neville’s illustrious recording career is well documented, and he continues to work with the Academy and other orchestras around the globe.

Tracklist

A1 Rondo for violin and orchestra in C major KV 373

Composed By – Wolfgang Amadeus Mozart

 
A2 Romance For Violin And Orchestra No. 1 In G Major Op. 40 and No. 2 In F Major Op. 50

Composed By – Ludwig van Beethoven

 
B1 Adagio For Violin And Orchestra In E Major KV 261

Composed By – Wolfgang Amadeus Mozart

 
B2 Rondo For Violin And Orchestra In A Major D. 438

Composed By – Franz Schubert

 
C1 Adagio For Violin And Strings In G Minor

Composed By – Tommaso Albinoni

 
C2 Octet For Strings In E Flat Major Op. 20, Scherzo In G Minor

Composed By – Felix Mendelssohn-Bartholdy

 
C3 Menuet from ‘Berenice’

Composed By – Georg Friedrich Haendel

 
C4 March in D major KV 335 No. 1

Composed By – Wolfgang Amadeus Mozart

 
C5 Christmas Oratorio BWV 248, Sinfonia

Composed By – Johann Sebastian Bach

 
D1 Canon a 3 On A Ground In D Major

Composed By – Johann Pachelbel

 
D2 12 Contradances WoO 14

Composed By – Ludwig van Beethoven

 
D3 Messiah, Sinfonia pastorale

Composed By – Georg Friedrich Haendel

 
D4 Suite No. 3 In D Major BWV 1068, Air

Composed By – Johann Sebastian Bach

 
D5 German Dance in C major KV 605 No. 3 ‘Sleigh Ride’

Composed By – Wolfgang Amadeus Mozart

 
E1 Eine Kleine Nachtmusik KV 525

Composed By – Wolfgang Amadeus Mozart

 
E2 Orfeo E Euridice, Dance Of The Blessed Spirits

Composed By – Christoph Willibald Gluck

 
F1 Toy Symphony

Composed By – Leopold Mozart

 
F2 Rosamunde D. 797, Entr’acte No. 3 in B flat major

Composed By – Franz Schubert

 
F3 Xerxes/Serse, Largo

Composed By – Georg Friedrich Haendel

 
F4 Jesu, Joy of man’s desiring BWV 147

Composed By – Johann Sebastian Bach

 
G1 Siegfried-Idyll

Composed By – Richard Wagner

 
G2 Nocturne B major op. 40 (657)

Composed By – Antonin Dvorak

 
H1 Pavane Op. 50

Composed By – Gabriel Faure

 
H2 String Quartet No. 1 in D major Op. 11, Andante cantabile

Composed By – Pyotr Ilyich Tchaikovsky

 
H3 Two elegiac melodies Op. 34

Composed By – Edvard Grieg

 
H4 Two elegiac melodies Op. 34

Composed By – Luigi Boccherini

 

———————————————————————————————-
Analyzed folder: /96k The Academy Of St. Martin-In-The-Field – Neville Marriner
———————————————————————————————-
DR        Peak        RMS        Filename
———————————————————————————————-
DR13        -3.78 dB     -20.55 dB     A1 Wolfgang Amadeus Mozart – Rondo for violin and orchestra in C major KV 373.aif
DR12        -2.07 dB     -19.26 dB     A2 Ludwig van Beethoven – Romance For Violin And Orchestra No. 1 In G Major Op. 40 and No. 2 In F Major Op. 50.aif
DR12        -4.13 dB     -20.12 dB     B1 Wolfgang Amadeus Mozart – Adagio For Violin And Orchestra In E Major KV 261.aif
DR14        -1.88 dB     -19.72 dB     B2 Franz Schubert – Rondo For Violin And Orchestra In A Major D. 438.aif
DR11        -1.52 dB     -17.54 dB     C1 Tommaso Albinoni – Adagio For Violin And Strings In G Minor.aif
DR13        -1.65 dB     -19.47 dB     C2 Felix Mendelssohn-Bartholdy – Octet For Strings In E Flat Major Op. 20, Scherzo In G Minor.aif
DR11        -2.59 dB     -17.65 dB     C3 Georg Friedrich Haendel – Menuet from ‘Berenice’.aif
DR11        -1.65 dB     -16.48 dB     C4 Wolfgang Amadeus Mozart – March in D major KV 335 No. 1.aif
DR11        -3.37 dB     -18.94 dB     C5 Johann Sebastian Bach – Christmas Oratorio BWV 248, Sinfonia.aif
DR11        -0.87 dB     -16.18 dB     D1 Johann Pachelbel – Canon a 3 On A Ground In D Major.aif
DR13        -1.92 dB     -18.99 dB     D2 Ludwig van Beethoven – 12 Contradances WoO 14.aif
DR11        -4.10 dB     -20.25 dB     D3 Georg Friedrich Haendel – Messiah, Sinfonia pastorale.aif
DR12        -4.74 dB     -20.47 dB     D4 Johann Sebastian Bach – Suite No. 3 In D Major BWV 1068, Air.aif
DR13        -0.55 dB     -17.50 dB     D5 Wolfgang Amadeus Mozart – German Dance in C major KV 605 No. 3 ‘Sleigh Ride’.aif
DR15        -1.25 dB     -20.41 dB     E1 Wolfgang Amadeus Mozart – Eine Kleine Nachtmusik KV 525.aif
DR12        -6.86 dB     -22.88 dB     E2 Christoph Willibald Gluck – Orfeo E Euridice, Dance Of The Blessed Spirits.aif
DR15        -0.58 dB     -20.21 dB     F1 Leopold Mozart – Toy Symphony.aif
DR13        -3.77 dB     -21.67 dB     F2 Franz Schubert – Rosamunde D. 797, Entr’acte No. 3 in B flat major.aif
DR12        -1.25 dB     -18.74 dB     F3 Georg Friedrich Haendel – Xerxes:Serse, Largo.aif
DR13        -3.84 dB     -22.30 dB     F4 Johann Sebastian Bach – Jesu, Joy of man’s desiring BWV 147.aif
DR15        -0.47 dB     -21.64 dB     G1 Richard Wagner – Siegfried-Idyll.aif
DR13        -7.58 dB     -27.75 dB     G2 Antonin Dvorak – Nocturne B major op. 40 (657).aif
DR12        -3.52 dB     -22.74 dB     H1 Gabriel Faure – Pavane op. 50.aif
DR14        -7.35 dB     -27.59 dB     H2 Pyotr Tchaikowsky – String Quartet No. 1 in D major Op. 11, Andante cantabile.aif
DR13        -2.23 dB     -21.59 dB     H3 Edvard Grieg – Two elegiac melodies Op. 34.aif
DR14        -8.39 dB     -26.82 dB     H4 Luigi Boccherini – Two elegiac melodies Op. 34.aif
———————————————————————————————-
Number of files:    26
Official DR value:    DR13
==============================================================================================

 

Ripping Info

Monitoring

If You hear some clicks and pops here and there, Who cares?
Id rather have a few light anomalies instead of destroying the music.
Enjoy the music, not the ticks & pops.
My rips are almost rough rips.

  • Software: iZotope RX 4 Advanced, Adobe Audition CS 5.5, Twisted Wave 1.9
  • Super light de-clicking with iZotope, significant clicks manually removing, no de-noising
  • DR-Analisys before converting to Flac
  • Converting Wave -> Flac: Twisted Wave 1.9
  • Artwork: Sony Alpha 350, Epson Perfection V750 Pro, Photoshop CS 5.5

DONATION !
If you like what i do, please consider that a little donation would be very appreciate.
I reinvest all donations in maintenance of my rig, for purchasing cleaning solutions and, most important of all, purchasing of new vinyls.
Click on the “Donate”-button.

Thank you very much !

Pay attention: on the track A2 there is an error at 11:24 – WOW!!! Holy crap, how could this happen? I lost half a minute of music?
Speechless.
A fixed A2 is ready for DL. Replace the old track with this new one.

Download from FileFactory
8 archives
PW: LaWally

 

Leave a comment ?

22 Comments.

  1. Thank you so much

  2. Thank you very much, friend! Marriner is great!
    Very good compliation and review of his musical recordings.

  3. Thank you for all your hard work, looking forward to listening to this.

  4. A very nice treat for the ears! Thanks

  5. thanks a lot!!!

  6. Amazing set. Thank You. … the label is EMI .-) , the year at least 1980.

  7. There is an error in the track A2 (Beethoven’s Violin Romances) at the time 11:24. Would You be so kind to fix it?

  8. The track H4 should be named “Luigi Boccherini – String Quintet in E major Op. 13: Minuet”, the same for the box 🙂

  9. Looking forward to this. Thank you.

  10. What a lovely selection! Thanks – Sir Neville is a wonder and still touring with the Academy at 91!

  11. Wonderful collection thanks Rach.

  12. Thank you very much for fix the missed music.

  13. This is wonderful, thank you.

  14. Thanks, a nice set.

Leave a Comment