HD-Vinyl 24/96 (London) Leo Delibes – Highlights from Sylvia & Coppelia (Ansermet)

front_small_boxsetReposted, now with FF links
Like most Ansermet performances with his beloved Suisse Romande Orchestra, these 1957/59 readings are precise and well-articulated, engineered to perfection and captured in glorious golden-age stereo.

# Composer: Leo Delibes
# Orchestra: Orchestre de la Suisse Romande
# Conductor: Ernest Ansermet
# Vinyl (1957/59)
# Number of discs: 1
# Format: Flac (tracks)
# Label: London (Decca)
# DR-Analysis: DR 13
# ASIN CD: B00005HW1Z
# Size: 978 MB
# Scan: yes
# Server: FileFactory

Analyzed folder: /96kLeoDe_Sy-Cop_Ans/96k Delibes – Highlights from Sylvia and Coppelia – Ansermet
DR        Peak        RMS        Filename
DR13        -0.03 dB     -16.57 dB     A1 Coppelia – Prelude and Mazurka.wav
DR13        -3.69 dB     -22.11 dB     A2 Coppelia – Andante and Valse.wav
DR13        -0.32 dB     -16.59 dB     A3 Coppelia – Czardas.wav
DR15        -3.59 dB     -24.59 dB     A4 Coppelia – Scene et Valse de poupee.wav
DR13        -0.43 dB     -18.64 dB     A5 Coppelia – Scene and Bolero.wav
DR14        -2.06 dB     -20.42 dB     A6 Coppelia – Gigue.wav
DR13        -2.62 dB     -21.56 dB     B1 Coppelia – Valse des heures.wav
DR12        -1.33 dB     -17.77 dB     B2 Coppelia – Danse de Fete.wav
DR11        -0.11 dB     -14.80 dB     B3 Coppelia – Galop-Finale.wav
DR14        -0.60 dB     -19.01 dB     B4 Sylvia – Les Chasseuresses.wav
DR11        -14.85 dB     -30.72 dB     B5 Sylvia – Intermezzo et Escarpolette.wav
DR18        -4.70 dB     -30.28 dB     B6 Sylvia – Pizzicati.wav
DR15        -0.35 dB     -19.59 dB     B7 Sylvia – Cortege de Bacchus.wav
Number of files:    13
Official DR value:    DR13


Ripping Infos

  • RCM: Okki Nokki (L’art du son, Clearaudio’s Diamond Cleaner)
  • TT: Clearaudio Champion Level II
  • Cartridge: Limited Edition Denon DL103 SA
  • Phono amp: Pro-Ject Phono Box II
  • Pre Amp: Unison Research Unico Pre (Tube)
  • Finals: Opera Consonance 9.9 Mono (Tube)
  • Speakers: Dali Helikon 400
  • Connections: MIT Terminator, Audioquest Emerald, Audioquest Quartz
  • Software: iZotope RX Advanced v2.02, Adobe Audition CS 5.5, Twisted Wave 1.9
  • Light de-Clicking with ClickRepair, significant clicks manually removing, no De-Noising

If You hear some clicks and pops here and there, Who cares?
Id rather have a few light anomalies instead of destroying the music. Enjoy the music, not the ticks & pops.

  • DR-Analisys before converting to Flac
  • Converting Wave -> Flac: Twisted Wave 1.9
  • Artwork: Sony Alpha 350, Epson Perfection V750 Pro, Photoshop CS 5.5

If you like what i do, please consider that a little donation would be very appreciate.
I reinvest all donations in maintenance of my rig, for purchasing cleaning solutions and, most important of all, purchasing of new vinyls.

Click on the “Donate”-button. Thank you very much !

Download from FileFactory
3 archives
PW: LaWally

12 thoughts on “HD-Vinyl 24/96 (London) Leo Delibes – Highlights from Sylvia & Coppelia (Ansermet)

  1. Hi Rachmaninov, this is a wonderful vinyl, could you re-upload please?
    Thanks for all your work to this page, i really apreciate.

  2. Well: the tracks filenames above are not correct for this vinyl…(L. Delibes)
    >> (96kMauRa_Sche/96k Ravel – Scheherazade – Crespin) ?


Leave a Reply