HD-Vinyl 24/96 (MFP) Ludwig van Beethoven – Symphony No. 3 (Walter)

front-small-boxset
All thanks for this go to our friend Lemarquis
Walter’s Eroica, recorded in January 1958 and his third studio recording after those he made in 1941 and 1949 with the New York Phil, is an excellent “traditional” reading. It may be exceptionable to call it that, because that kind of interpretive approach wasn’t dominant before World War II; it became more so after. Tempos are almost always on the slow side, a far cry not only from Beethoven’s controversially fast metronome marks but even from what the tempo indications at the beginning of the outer movements seem to suggest: “Allegro con brio” (1st movement), “Allegro molto” (finale).

Composer: Ludwig van Beethoven
Orchestra: Columbia Symphony Orchestra
Conductor: Bruno Walter
Vinyl 1959
Number of discs: 1
Format: Flac
Label: MFP
DR-Analysis:
DR 13
Size: 1.08 GB
Scan: yes
Server: FF

Tracklist

  Symphony No. 3 In E-Flat Major, Op. 55 (Eroica)
A1 I. Allegro Con Brio 16:15
A2 II. Funeral March (Adagio Assai) 15:48
B1 III. Scherzo (Allegro Vivace) – Trio 6:10
B2 IV. Finale (Allegro Molto – Poco Andante) 12:35

 

———————————————————————————————-
Analyzed folder: /96k LvB – Symphony 3 – Walter
———————————————————————————————-
DR        Peak        RMS        Filename
———————————————————————————————-
DR13        -1.23 dB     -19.05 dB     A1 Symphony No. 3 In E-Flat Major, Op. 55 (Eroica) – I. Allegro Con Brio.aif
DR13        -1.05 dB     -20.34 dB     A2 Symphony No. 3 In E-Flat Major, Op. 55 (Eroica) – II. Funeral March (Adagio Assai).aif
DR12        -0.67 dB     -19.53 dB     B1 Symphony No. 3 In E-Flat Major, Op. 55 (Eroica) – III. Scherzo (Allegro Vivace) – Trio.aif
DR12        -1.30 dB     -18.18 dB     B2 Symphony No. 3 In E-Flat Major, Op. 55 (Eroica) – IV. Finale (Allegro Molto – Poco Andante).aif
———————————————————————————————-
Number of files:    4
Official DR value:    DR13
==============================================================================================

 

Ripping Info

Monitoring

  • Software: iZotope RX 4 Advanced, Adobe Audition CS 5.5, Twisted Wave 1.9
  • Super light de-clicking with iZotope, significant clicks manually removing, no de-noising
  • DR-Analisys before converting to Flac
  • Converting Wave -> Flac: Twisted Wave 1.9
  • Artwork: Sony Alpha 350, Epson Perfection V750 Pro, Photoshop CS 5.5

DONATION !
If you like what i do, please consider that a little donation would be very appreciated.
I reinvest all donations in maintenance of my rig, for purchasing cleaning solutions and, most important of all, purchasing of new vinyls.
Click on the “Donate”-button.

Thank you very much !

DL from FileFactory

PW: LaWally

14 thoughts on “HD-Vinyl 24/96 (MFP) Ludwig van Beethoven – Symphony No. 3 (Walter)”

  1. Thank you! I have been catching up on Night Owl’s jazz shares, and now I have Boxset classics to catch up on. It’s a nice problem to have, for sure.

Leave a Reply