HD-Vinyl 24/96 Mono (Musical Masterpiece Society) Wolfgang Amadeus Mozart – Violin Concerti No. 1 and 5 (Parikian)


Many thanks to Urbanox for this rarity
Manoug Parikian (15 September 1920 – 24 December 1987) was a British concert violinist and violin professor. He was born in Mersin to Armenian parents. He studied in London. Parikian made his solo début in 1947 and led several orchestras – the Liverpool Philharmonic, London’s Philharmonia Orchestra, the Yorkshire Sinfonia from 1976 to 1978 – and was musical director of the Manchester Camerata from 1980 to 1984. He also led the English Opera Group Orchestra between 1949 and 1951, and participated in various Aldeburgh Festival concerts as a chamber musician as well as in opera productions.  He was an admired teacher at the Royal Academy of Music. He also championed contemporary composers, many of whom wrote works for him: examples include Thea Musgrave’s Colloquy (1960), Gordon Crosse’s Violin Concerto No. 2, Alexander Goehr’s Violin Concerto (1961–62) and Hugh Wood’s Violin Concerto. Benjamin Britten also composed for Parikian a cadenza to Mozart’s Adagio for Violin and Orchestra K261 in 1951.

Composer: Wolfgang Amadeus Mozart
Performer: Manoug Parikian
Orchestra: Philharmonic Society Orchestra Amsterdam
Conductor: Walter Goehr
Vinyl 1962
Number of Discs: 1
Format: FLAC
Label: MMS
DR-Analysis: DR 12
Size: 586 MB
Scan: yes
Server: FF


Tracklist

  Concerto De Violon N°1 En Si Bémol Majeur, K.207  
A1 Allegro Moderato  
A2 Adagio  
A3 Presto  
  Concerto De Violon N°5 En La Majeur, K.219  
B1 Allegro Aperto  
B2 Adagio  
B3 Rondeau: Tempo Di Menuetto – Allegro  

 

———————————————————————————————-
Analyzed folder: /96k (M) WAM – Violin Concerti No. 1 And 5 – Parikian
———————————————————————————————-
DR Peak RMS Filename
———————————————————————————————-

DR10 -2.52 dB -15.71 dB A1 Violin Concerto No 1 In B Flat Major, K. 207 – Allegro Moderato.aif
DR12 -2.61 dB -20.14 dB A2 Violin Concerto No 1 In B Flat Major, K. 207 – Adagio.aif
DR12 -0.92 dB -17.29 dB A3 Violin Concerto No 1 In B Flat Major, K. 207 – Presto.aif
DR11 -1.25 dB -17.14 dB B1 Violin Concerto No 5 In A Major, K. 219 – Allegro Aperto.aif
DR13 -3.05 dB -19.71 dB B2 Violin Concerto No 5 In A Major, K. 219 – Adagio.aif
DR11 -0.98 dB -16.35 dB B3 Violin Concerto No 5 In A Major, K. 219 – Rondeau- Tempo Di Menuetto – Allegro.aif
———————————————————————————————-

Number of files: 6
Official DR value: DR12

==============================================================================================

 

Ripping Info

Monitoring

A few words about the way i’ve been cleaning vinyl records and post-processing rips, since summer 2017: After washing and recording the vinyl, I use a kind of mixed cleaning of the rip, which consists of mostly manual rather than automatic de-clicking, (the latter only on unimportant passages, such as end of the groove, beginning and end of the songs, applause, speaking). I often leave the rips almost rough, de-clicking only the silences between the tracks. Never de-noising or/and EQ, as unfortunately some do. I prefer to hear a bit of quiet noises of the clean groove, that contain something of the music, rather than generate clinically clean files that may, eventually, sound a bit dead. If you do not agree, do not download my rips and buy instead digital files or CDs.
When I listen to music I “don’t hear” any noise: I enjoy the music 😀
I do not make rips for headphones!

  • Software: iZotope RX 5 Advanced, Adobe Audition CS 5.5, Twisted Wave 1.18
  • Very careful de-clicking with iZotope, significant clicks manually removed, never de-noising
  • DR-Analisys
  • Wave 32/192(32/384) —> Flac 24/96 & 24/192: Twisted Wave 1.18
  • Artwork: Sony Alpha 350, Epson Perfection V750 Pro, Photoshop CS 5.5

 

 

5 thoughts on “HD-Vinyl 24/96 Mono (Musical Masterpiece Society) Wolfgang Amadeus Mozart – Violin Concerti No. 1 and 5 (Parikian)

Leave a Reply