Audiophile HD-Vinyl 24/96 (Opus3) Wienerklavier – Inger Grudin

A little but fine audiophile label from Sweden – records are hard to find
Reposted, now on FF

# Composer: Beethoven, Haydn, Schubert, Mozart, Chopin
# Performer: Inger Grudin
# Vinyl (1980)
# Number of Discs: 1
# Format: Flac
# Label: Opus3
# DR-Analysis: DR 12
# ASIN CD: not found

# Size: 766 MB
# Scan: yes
# Server: FileFactory

Analyzed folder: /96kOP3_WieKla/96k Opus3 Wienerklavier
DR        Peak        RMS        Filename
DR11        -0.80 dB     -15.94 dB     A2 Haydn – Variations on a Theme F-minor.wav
DR13        -0.95 dB     -18.37 dB     B4 Mozart – Fantasia D-minor, KV 397.wav
DR13        -1.76 dB     -18.54 dB     B3 Schubert – Moment Musical F-minor, Op. 94-3.wav
DR12        -1.21 dB     -16.21 dB     B2 Mozart – Allegretto alla Turca from Sonata A-Major, KV 331.wav
DR11        -0.82 dB     -17.19 dB     B1 Chopin – Nocturne A-Flat Major, Op. 32-2.wav
DR12        -1.03 dB     -16.49 dB     A3 Schubert – Three Laendler from Op. 171, D790.wav
DR12        -0.88 dB     -16.28 dB     A1 Beethoven – Rondo C-Major Op. 51-1.wav
Number of files:    7
Official DR value:    DR12


Ripping Infos

  • RCM: Okki Nokki
  • TT: Clearaudio Champion Level II
  • System: Limited Edition Denon DL 103 SA
  • Phono stage: Pro-Ject Phono Box II
  • Pre Amp: Unison Research Unico Pre (Tube)
  • Finals: Opera Consonance 9.9 Mono (Tube)
  • Speakers: Dali Helikon 400
  • Connections: MIT Terminator, Audioquest Emerald, Audioquest Quartz
  • Software: iZotope RX Advanced v2.02, Adobe Audition CS 5.5, Twisted Wave 1.9
  • Light de-Clicking with iZotope, significant clicks manually removing, no De-Noising

If You hear some clicks and pops here and there, Who cares?
Id rather have a few light anomalies instead of destroying the music. Enjoy the music, not the ticks & pops

  • DR-Analisys before converting to Flac
  • Converting Wave -> Flac: Twisted Wave 1.9
  • Artwork: Sony Alpha 350, Epson Perfection V750 Pro, Photoshop CS 5.5

If you like what i do, please consider that a little donation would be very appreciate. I reinvest all donations in maintenance of my rig, for purchasing cleaning solutions and, most important of all, purchasing of new vinyls.
Click on the “Donate”-button. Thank you very much !

Download from FileFactory

2 archives
PW: LaWally

21 thoughts on “Audiophile HD-Vinyl 24/96 (Opus3) Wienerklavier – Inger Grudin

    • No problem, my friend…was not disrespect. Only because it was a notice for me to set the links. After doing this I deleted the comment…I knew you would come again for a right comment 😉

Leave a Reply