HD-Vinyl 24/96 (Philips) Antonio Vivaldi – Concerti For Oboe (I Musici, Holliger, Bourgue)

front-small-boxset
Many thanks to our friend Mats for this gem
What a pity that the oboe is featured so little in contemporary music. So much wonderful music was written for it in the Baroque era. Holliger is a genuine virtuoso, the kind of artist that never disappoints and the compositions by Vivaldi are melodic and inventive. This record is a first class level in any aspect.

Composer: Antonio Vivaldi
Performer: I Musici, Heinz Holliger, Maurice Bourgue
Vinyl (1980)
Number of discs: 1
Format: Flac
Label: Philips
DR-Analysis:
DR 12
Size: 793 MB
Scan: yes
Server: FF

Tracklist

  Concerto RV 534 In C For 2 Oboes, Strings And Continuo (8:35)
A1.1 1. Allegro  
A1.2 2. Largo  
A1.3 3. Allegro  
  Concerto RV 535 In D Minor For 2 Oboes, Strings And Continuo (9:08)
A2.1 1. Largo – Allegro  
A2.2 2. Largo  
A2.3 3. Allegro Molto  
  Concerto RV 458 In F for Oboe, Strings, And Continuo (6:17)
B1.1 1. Allegro  
B1.2 2. Adagio  
B1.3 3. Allegro  
  Concerto RV 536 In A Minor For 2 Oboes, Strings And Continuo (6:45)
B2.1 1. Allegro  
B2.2 2. Largo  
B2.3 3. Allegro  
  Concerto RV 462 In A Minor For Oboe, Strings And Continuo (6:33)
B3.1 1. Allegro  
B3.2 2. Largo  
B3.3 3. Allegro  

———————————————————————————————-
Analyzed folder: /96k Vivaldi – 5 Concerti For Oboe – Musici, Holliger
———————————————————————————————-
DR        Peak        RMS        Filename
———————————————————————————————-
DR12        -0.61 dB     -15.12 dB     A1 Concerto RV 534 In C For 2 Oboes, Strings And Continuo 1. Allegro.aif
DR11        -6.56 dB     -20.91 dB     A2 Concerto RV 534 In C For 2 Oboes, Strings And Continuo 2. Largo.aif
DR12        -1.75 dB     -17.48 dB     A3 Concerto RV 534 In C For 2 Oboes, Strings And Continuo 3. Allegro.aif
DR13        -1.73 dB     -17.92 dB     A4 Concerto RV 535 In D Minor For 2 Oboes, Strings And Continuo 1. Largo – Allegro.aif
DR12        -1.43 dB     -16.95 dB     A5 Concerto RV 535 In D Minor For 2 Oboes, Strings And Continuo 2. Largo.aif
DR13        -1.15 dB     -16.99 dB     A6 Concerto RV 535 In D Minor For 2 Oboes, Strings And Continuo 3. Allegro Molto.aif
DR12        -0.96 dB     -16.71 dB     B1 Concerto RV 458 In F for Oboe, Strings, And Continuo 1. Allegro.aif
DR12        -3.39 dB     -19.22 dB     B2 Concerto RV 458 In F for Oboe, Strings, And Continuo 2. Adagio.aif
DR10        -1.28 dB     -17.37 dB     B3 Concerto RV 458 In F for Oboe, Strings, And Continuo 3. Allegro.aif
DR12        -0.98 dB     -16.72 dB     B4 Concerto RV 536 In A Minor For 2 Oboes, Strings And Continuo 1. Allegro.aif
DR11        -1.94 dB     -18.61 dB     B5 Concerto RV 536 In A Minor For 2 Oboes, Strings And Continuo 2. Largo.aif
DR11        -3.22 dB     -18.83 dB     B6 Concerto RV 536 In A Minor For 2 Oboes, Strings And Continuo 3. Allegro.aif
DR11        -1.47 dB     -17.00 dB     B7 Concerto RV 462 In A Minor For Oboe, Strings And Continuo 1. Allegro.aif
DR12        -2.16 dB     -18.66 dB     B8 Concerto RV 462 In A Minor For Oboe, Strings And Continuo 2. Largo.aif
DR12        -1.85 dB     -17.67 dB     B9 Concerto RV 462 In A Minor For Oboe, Strings And Continuo 3. Allegro.aif
———————————————————————————————-
Number of files:    15
Official DR value:    DR12
==============================================================================================

Ripping Info

Monitoring

  • Software: iZotope RX 4 Advanced, Adobe Audition CS 5.5, Twisted Wave 1.9
  • Super light de-clicking with iZotope, significant clicks manually removing, no de-noising
  • DR-Analisys before converting to Flac
  • Converting Wave -> Flac: Twisted Wave 1.9
  • Artwork: Sony Alpha 350, Epson Perfection V750 Pro, Photoshop CS 5.5

DONATION !
If you like what i do, please consider that a little donation would be very appreciated.
I reinvest all donations in maintenance of my rig, for purchasing cleaning solutions and, most important of all, purchasing of new vinyls.
Click on the “Donate”-button.

Thank you very much !

DL from FileFactory

PW: LaWally

12 thoughts on “HD-Vinyl 24/96 (Philips) Antonio Vivaldi – Concerti For Oboe (I Musici, Holliger, Bourgue)”

      1. Actually they are novel concertos from the Vivaldi Edition but with the same teams. When early volumes posted I first believed that that 10 volumes Edition was a kind of Vivaldi encyclopedia but are missing at least all mandolin concertos, many cello concertos and these oboe concertos (and those from the post below). Vivaldi works seem an endless world..
        So thanks Mats !

        1. Indeed the “famous” Vivaldi Edition is not a kind of complete edition…..there are so many works missed. I guess, they had to release a 20 box-set to pay justice to priest Antonio 😀

Leave a Reply