HD-Vinyl 24/96 (Philips) Antonio Vivaldi – The Six Concerti For Flute (Petri, Academy SMITF, Brown)

front-small-boxset
Many thanks to our friend Mats for this wonderful record
It is a fine academic point whether these Op. 10 concertos were originally written for recorder or transverse flute. When the recorder is played with such brisk virtuosity and faultless intonation as Michala Petri consistently provides, only a dullard could ask for anything more. At a rather piping modern pitch (a sopranino recorder is used in Nos. 3, 4 and 6) and sympathetically accompanied by the ASMF, these concertos come over as fresh as paint on vinyl with just an occasional gargantuan breath from Petri to show that she is human.’

Composer: Antonio Vivaldi
Performer: Michala Petri
Orchestra: Academy Of St. Martin-In-The-Fields
Conductrix: Iona Brown
Vinyl (1981)
Number of discs: 1
Format: Flac
Label: Philips
DR-Analysis:
DR 13
Size: 1 GB
Scan: yes
Server: FF

Tracklist

  Concerto No.1, Op.10, ‘La Tempesta Di Mare’, RV 433, In F For Recorder, Strings and Continuo  
A1 Allegro – Largo – Presto 7:01
  Concerto No.2, Op.10, ‘La Notte’, RV 439, In G Minor For Recorder, Strings and Continuo
 
A2 Largo – Fantasmi (Presto) / Largo – Presto – Il Sonno (Largo) – Allegro 8:41
  Concerto No.3, Op.10, ‘Il Gardellino’, RV 428, In D For Recorder, Strings and Continuo
 
A3 Allegro – Cantabile – Allegro 9:31
  Concerto No.4, Op.10, RV 435, In G For Recorder, Strings and Continuo
 
B1 Allegro – Largo – Allegro 6:44
  Concerto No.5, Op.10, RV 434, In F For Recorder, Strings and Continuo
 
B2 Allegro – Largo – Allegro 8:00
  Concerto No.6, Op.10, RV 437, In G For Recorder, Strings and Continuo
 
B3 Allegro – Largo – Allegro 7:51

———————————————————————————————-
Analyzed folder: /96k Vivaldi – 6 Concerti For Flute – Academy SMITF, Petri
———————————————————————————————-
DR        Peak        RMS        Filename
———————————————————————————————-
DR13        -0.80 dB     -17.77 dB     A1 Concerto No.1, Op.10, ‘La Tempesta Di Mare’, RV 433, In F For Recorder, Strings and Continuo.aif
DR13        -1.12 dB     -19.99 dB     A2 Concerto No.2, Op.10, ‘La Notte’, RV 439, In G Minor For Recorder, Strings and Continuo.aif
DR14        -0.83 dB     -18.78 dB     A3 Concerto No.3, Op.10, ‘Il Gardellino’, RV 428, In D For Recorder, Strings and Continuo.aif
DR13        -1.89 dB     -18.94 dB     B1 Concerto No.4, Op.10, RV 435, In G For Recorder, Strings and Continuo.aif
DR12        -3.31 dB     -19.00 dB     B2 Concerto No.5, Op.10, RV 434, In F For Recorder, Strings and Continuo.aif
DR13        -1.08 dB     -17.72 dB     B3 Concerto No.6, Op.10, RV 437, In G For Recorder, Strings and Continuo.aif
———————————————————————————————-
Number of files:    6
Official DR value:    DR13
==============================================================================================

Ripping Info

Monitoring

  • Software: iZotope RX 4 Advanced, Adobe Audition CS 5.5, Twisted Wave 1.9
  • Super light de-clicking with iZotope, significant clicks manually removing, no de-noising
  • DR-Analisys before converting to Flac
  • Converting Wave -> Flac: Twisted Wave 1.9
  • Artwork: Sony Alpha 350, Epson Perfection V750 Pro, Photoshop CS 5.5

DONATION !
If you like what i do, please consider that a little donation would be very appreciated.
I reinvest all donations in maintenance of my rig, for purchasing cleaning solutions and, most important of all, purchasing of new vinyls.
Click on the “Donate”-button.

Thank you very much !

DL from FileFactory

PW: LaWally

11 thoughts on “HD-Vinyl 24/96 (Philips) Antonio Vivaldi – The Six Concerti For Flute (Petri, Academy SMITF, Brown)”

Leave a Reply