HD-Vinyl 24/96 (Philips) Franz Liszt – The Piano Concertos (Arrau/Davis)

Reposted, now with FF links

# Composer: Franz Liszt
# Performer: Claudio Arrau
# Orchestra: London Symphony Orchestra
# Conductor: Sir Colin Davis
# Vinyl (1981)
# Format: Flac
# Label: Philips
# DR-Analysis: DR 14
# Size: 845 MB
# Scan: yes
# Server: FileFactory

 Analyzed folder: /96kLzt_2pc_ClAr/96k Liszt – Piano Concertos 1 and 2 – Arrau-Davis
 DR        Peak        RMS        Filename
 DR10        -0.48 dB     -16.30 dB     A1 Piano Concerto No1 – Allegro Maestoso.wav
 DR14        -1.74 dB     -21.55 dB     A2 Piano Concerto No1 – Quasi Adagio.wav
 DR10        -0.80 dB     -15.90 dB     A3 Piano Concerto No1 – Allegretto Animato, Allegro Vivace.wav
 DR9        -0.84 dB     -14.43 dB     A4 Piano Concerto No1 – Allegro Marziale Animato.wav
 DR11        -1.15 dB     -16.29 dB     B1 Piano Concerto No2 – Adagio Sostenuto Assai-Allegro Sostenuto Assai.wav
 DR13        -3.59 dB     -23.53 dB     B2 Piano Concerto No2 – Allegro Moderato.wav
 DR10        -0.55 dB     -14.95 dB     B3 Piano Concerto No2 – Allegro Deciso-Marziale Un Poco Meno Allegro.wav
 DR8        -0.47 dB     -12.21 dB     B4 Piano Concerto No2 – Allegro Animato.wav
 Number of files:    8
 Official DR value:    DR11



Ripping Infos

  • RCM: Okki Nokki
  • TT: Clearaudio Champion Level II
  • Cartridge: Limited Edition Denon DL103 SA
  • Phono stage: Pro-Ject Phono Box II
  • Pre Amp: Unison Research Unico Pre (Tube)
  • Finals: Opera Consonance 9.9 Mono (Tube)
  • Speakers: Dali Helikon 400
  • Connections: MIT Terminator, Audioquest Emerald, Audioquest Quartz
  • Software: iZotope RX Advanced v2.02, Adobe Audition CS 5.5, Twisted Wave 1.9
  • Light de-Clicking with iZotope, significant clicks manually removing, no De-Noising

If You hear some clicks and pops here and there, Who cares?
Id rather have a few light anomalies instead of destroying the music. Enjoy the music, not the ticks & pops.

  • DR-Analisys before converting to Flac
  • Converting Wave -> Flac: Twisted Wave 1.9
  • Artwork: Sony Alpha 350, Epson Perfection V750 Pro, Photoshop CS 5.5

If you like what i do, please consider that a little donation would be very appreciate. I reinvest all donations in maintenance of my rig, for purchasing cleaning solutions and, most important of all, purchasing of new vinyls.
Click on the “Donate”-button. Thank you very much !

Download from FileFactory
3 archives
PW: LaWally

15 thoughts on “HD-Vinyl 24/96 (Philips) Franz Liszt – The Piano Concertos (Arrau/Davis)

  1. Alf, thank you for this important recording. Powerful and serious You may compare with Berliner Sinf. Orchester, Hans Rosbaud 1942 and N.Y. Philharmonic, Guido Cantelli. Trottar

    • Ah…Cantelli, das “Kind” von Toscanini. Weisst du, dass Toscanini starb ohne jemals erfahren zu haben, dass sein Protegeé Guido verunglückt war? Toscaninis Familie war der Meinung, der Maestro wäre sonst sehr viel früher vor Schmerz gestorben.

    • Ja ja, Toscanini hatte sich Guido Cantelli praktisch als seinen Nachfolger gross gezogen und liebte ihn wie einen Sohn….er starb 2 Monate später als Cantelli.
      Mensch, wie grausam…Cantelli, der 36 war, wurde ein paar Tage vor seinem tragischen Tod als Chef der Scala di Milano ernannt.

Leave a Reply